eztv.tf | eztvstatus.org
Search title:  
TV Packs only
 

Billions S07E06 720p x264-FENiX EZTV

Episode Breakdown
Billions
Billions TV Show S07E06

Season: 7
Episode: 6
Air Date: 15 September, 2023
Download Links
     Torrent Download     Magnet Download
     Anonymous Download
Added 8 months ago by eztv (verified).
Tracker Statistics
Seeds: 4
Peers: 3
Stats generated @ 16:46 on 20th May 2024
Torrent Info
Torrent File: Billions.S07E06.720p.x264-FENiX[eztv.re].mkv
Torrent Hash: D049CC6E5F950D63BFE20AD4778FBEB9B08D4483
Filesize: 437 MB
Released: 15th Sep 2023

File Format: MKV (Matroska)
Resolution: 1280x720 px
Aspect Ratio: 16:9
Alternate Releases S L
Billions S07E06 720p WEB h264-EDITH 21 1
Billions S07E06 1080p WEB H264-PLZPROPER 9 1
Billions S07E06 iNTERNAL 1080p HEVC x265-MeGusta 5 1
Billions S07E06 1080p x265-ELiTE 1 2
Billions S07E06 720p x265-T0PAZ 7 1
Billions S07E06 The Man in the Olive Drab T-Shirt 1080p HMAX WEB-DL DDP5 1 x264-NTb 7 3
Billions S07E06 480p x264-mSD 5 0

Billions S07E06 - The Man in the Olive Drab T-Shirt

Summary:

Axe turns to Chuck for a favor involving a common adversary. Prince maneuvers to raise his public profile. Chuck seeks counsel from an out-of-the-box business mind. Wendy works to run employee feedback rounds, even at the cost of Prince's pride.



Billions S07E06 720p x264-FENiX EZTV
Billions S7E6 Screenshot


General
Unique ID: 208658361359188468541621849790821157448 (0x9CFA237D2E0C848523C8186E9C5FCA48)
Complete name: Billions.S07E06.720p.x264-FENiX.mkv
Format: Matroska
Format version: Version 4
File size: 437 MiB
Duration: 56 min 9 s
Overall bit rate: 1 089 kb/s
Movie name: Billions.S07E06
Writing application: Lavf59.16.100
Writing library: Lavf59.16.100
Comment: FENiX-Fri-15-Sep-2023,05:38:40,720p,23,fast,4499968,0,-1
ErrorDetectionType: Per level 1

Video
ID: 1
Format: AVC
Format/Info: Advanced Video Codec
Format profile: [email protected]
Format settings: CABAC / 4 Ref Frames
Format settings, CABAC: Yes
Format settings, Reference frames: 4 frames
Codec ID: V_MPEG4/ISO/AVC
Duration: 56 min 9 s
Bit rate: 619 kb/s
Width: 1 280 pixels
Height: 720 pixels
Display aspect ratio: 16:9
Frame rate mode: Variable
Color space: YUV
Chroma subsampling: 4:2:0
Bit depth: 8 bits
Scan type: Progressive
Stream size: 249 MiB (57%)
Writing library: x264 core 163
Encoding settings: cabac=1 / ref=2 / deblock=1:0:0 / analyse=0x3:0x113 / me=hex / subme=6 / psy=1 / psy_rd=1.00:0.00 / mixed_ref=1 / me_range=16 / chroma_me=1 / trellis=1 / 8x8dct=1 / cqm=0 / deadzone=21,11 / fast_pskip=1 / chroma_qp_offset=-2 / threads=22 / lookahead_threads=3 / sliced_threads=0 / nr=0 / decimate=1 / interlaced=0 / bluray_compat=0 / constrained_intra=0 / bframes=3 / b_pyramid=2 / b_adapt=1 / b_bias=0 / direct=1 / weightb=1 / open_gop=0 / weightp=1 / keyint=250 / keyint_min=23 / scenecut=40 / intra_refresh=0 / rc_lookahead=30 / rc=crf / mbtree=1 / crf=23.0 / qcomp=0.60 / qpmin=0 / qpmax=69 / qpstep=4 / ip_ratio=1.40 / aq=1:1.00
Default: Yes
Forced: No
Color range: Limited
Color primaries: BT.709
Transfer characteristics: BT.709
Matrix coefficients: BT.709

Audio
ID: 2
Format: AC-3
Format/Info: Audio Coding 3
Commercial name: Dolby Digital
Codec ID: A_AC3
Duration: 56 min 9 s
Bit rate mode: Constant
Bit rate: 448 kb/s
Channel(s): 6 channels
Channel layout: L R C LFE Ls Rs
Sampling rate: 48.0 kHz
Frame rate: 31.250 FPS (1536 SPF)
Bit depth: 32 bits
Compression mode: Lossy
Stream size: 180 MiB (41%)
Writing library: Lavc59.18.100 ac3
Language: English
Service kind: Complete Main
Default: Yes
Forced: No

Text
ID: 3
Format: ASS
Codec ID: S_TEXT/ASS
Codec ID/Info: Advanced Sub Station Alpha
Duration: 55 min 57 s
Compression mode: Lossless
Language: English
Default: No
Forced: No

ssl  EZTV RSS EZTV Status | EZTV API | DMCA: [email protected]