eztv.tf | eztvstatus.org
Search title:  
TV Packs only
 

Billions S07E06 1080p x265-ELiTE EZTV

Episode Breakdown
Billions
Billions TV Show S07E06

Season: 7
Episode: 6
Air Date: 15 September, 2023
Download Links
     Torrent Download     Magnet Download
     Anonymous Download
Added 9 months ago by eztv (verified).
Tracker Statistics
Seeds: 6
Peers: 0
Stats generated @ 01:42 on 15th Jul 2024
Torrent Info
Torrent File: Billions.S07E06.1080p.x265-ELiTE[eztv.re].mkv
Torrent Hash: 9411FFF059C8AA5E5E844CA0AEF5170D7CCD315A
Filesize: 443 MB
Released: 15th Sep 2023

File Format: MKV (Matroska)
Resolution: 1920x1080 px
Aspect Ratio: 16:9
Alternate Releases S L
Billions S07E06 720p WEB h264-EDITH 15 9
Billions S07E06 1080p WEB H264-PLZPROPER 9 1
Billions S07E06 iNTERNAL 1080p HEVC x265-MeGusta 4 2
Billions S07E06 720p x265-T0PAZ 4 0
Billions S07E06 720p x264-FENiX 10 0
Billions S07E06 The Man in the Olive Drab T-Shirt 1080p HMAX WEB-DL DDP5 1 x264-NTb 6 1
Billions S07E06 480p x264-mSD 3 1

Billions S07E06 - The Man in the Olive Drab T-Shirt

Summary:

Axe turns to Chuck for a favor involving a common adversary. Prince maneuvers to raise his public profile. Chuck seeks counsel from an out-of-the-box business mind. Wendy works to run employee feedback rounds, even at the cost of Prince's pride.



Billions S07E06 1080p x265-ELiTE EZTV
Billions S7E6 Screenshot


General
Unique ID: 84826527521391704075518909460032219502 (0x3FD0FEB498B30CD6BA3C9FD0A51B696E)
Complete name: Billions.S07E06.1080p.x265-ELiTE.mkv
Format: Matroska
Format version: Version 4
File size: 443 MiB
Duration: 56 min 9 s
Overall bit rate: 1 103 kb/s
Movie name: Billions.S07E06
Writing application: Lavf59.16.100
Writing library: Lavf59.16.100
Comment: ELiTE-Fri-15-Sep-2023,06:01:45,1080p,22,faster,4499968,0,-1
ErrorDetectionType: Per level 1

Video
ID: 1
Format: HEVC
Format/Info: High Efficiency Video Coding
Format profile: Main@L4@Main
Codec ID: V_MPEGH/ISO/HEVC
Duration: 56 min 9 s
Bit rate: 633 kb/s
Width: 1 920 pixels
Height: 1 080 pixels
Display aspect ratio: 16:9
Frame rate mode: Variable
Original frame rate: 23.976 FPS
Color space: YUV
Chroma subsampling: 4:2:0 (Type 0)
Bit depth: 8 bits
Stream size: 254 MiB (57%)
Writing library: x265 0.0:[Linux][GCC 4.8.5][64 bit] 8bit
Encoding settings: cpuid=1111039 / frame-threads=4 / wpp / no-pmode / no-pme / no-psnr / no-ssim / log-level=2 / input-csp=1 / input-res=1920x1080 / interlace=0 / total-frames=0 / level-idc=0 / high-tier=1 / uhd-bd=0 / ref=2 / no-allow-non-conformance / no-repeat-headers / annexb / no-aud / no-hrd / info / hash=0 / no-temporal-layers / open-gop / min-keyint=23 / keyint=250 / gop-lookahead=0 / bframes=4 / b-adapt=0 / b-pyramid / bframe-bias=0 / rc-lookahead=15 / lookahead-slices=6 / scenecut=40 / hist-scenecut=0 / radl=0 / no-splice / no-intra-refresh / ctu=64 / min-cu-size=8 / no-rect / no-amp / max-tu-size=32 / tu-inter-depth=1 / tu-intra-depth=1 / limit-tu=0 / rdoq-level=0 / dynamic-rd=0.00 / no-ssim-rd / signhide / no-tskip / nr-intra=0 / nr-inter=0 / no-constrained-intra / strong-intra-smoothing / max-merge=2 / limit-refs=3 / no-limit-modes / me=1 / subme=2 / merange=57 / temporal-mvp / no-frame-dup / no-hme / weightp / no-weightb / no-analyze-src-pics / deblock=0:0 / sao / no-sao-non-deblock / rd=2 / selective-sao=4 / early-skip / rskip / fast-intra / no-tskip-fast / no-cu-lossless / no-b-intra / no-splitrd-skip / rdpenalty=0 / psy-rd=2.00 / psy-rdoq=0.00 / no-rd-refine / no-lossless / cbqpoffs=0 / crqpoffs=0 / rc=crf / crf=22.0 / qcomp=0.60 / qpstep=4 / stats-write=0 / stats-read=0 / ipratio=1.40 / pbratio=1.30 / aq-mode=2 / aq-strength=1.00 / cutree / zone-count=0 / no-strict-cbr / qg-size=32 / no-rc-grain / qpmax=69 / qpmin=0 / no-const-vbv / sar=1 / overscan=0 / videoformat=5 / range=0 / colorprim=1 / transfer=1 / colormatrix=1 / chromaloc=1 / chromaloc-top=0 / chromaloc-bottom=0 / display-window=0 / cll=0,0 / min-luma=0 / max-luma=255 / log2-max-poc-lsb=8 / vui-timing-info / vui-hrd-info / slices=1 / no-opt-qp-pps / no-opt-ref-list-length-pps / no-multi-pass-opt-rps / scenecut-bias=0.05 / hist-threshold=0.01 / no-opt-cu-delta-qp / no-aq-motion / no-hdr10 / no-hdr10-opt / no-dhdr10-opt / no-idr-recovery-sei / analysis-reuse-level=0 / analysis-save-reuse-level=0 / analysis-load-reuse-level=0 / scale-factor=0 / refine-intra=0 / refine-inter=0 / refine-mv=1 / refine-ctu-distortion=0 / no-limit-sao / ctu-info=0 / no-lowpass-dct / refine-analysis-type=0 / copy-pic=1 / max-ausize-factor=1.0 / no-dynamic-refine / no-single-sei / no-hevc-aq / no-svt / no-field / qp-adaptation-range=1.00 / no-scenecut-aware-qpconformance-window-offsets / right=0 / bottom=0 / decoder-max-rate=0
Default: Yes
Forced: No
Color range: Limited
Color primaries: BT.709
Transfer characteristics: BT.709
Matrix coefficients: BT.709

Audio
ID: 2
Format: AC-3
Format/Info: Audio Coding 3
Commercial name: Dolby Digital
Codec ID: A_AC3
Duration: 56 min 9 s
Bit rate mode: Constant
Bit rate: 448 kb/s
Channel(s): 6 channels
Channel layout: L R C LFE Ls Rs
Sampling rate: 48.0 kHz
Frame rate: 31.250 FPS (1536 SPF)
Bit depth: 32 bits
Compression mode: Lossy
Stream size: 180 MiB (41%)
Writing library: Lavc59.18.100 ac3
Language: English
Service kind: Complete Main
Default: Yes
Forced: No

Text
ID: 3
Format: ASS
Codec ID: S_TEXT/ASS
Codec ID/Info: Advanced Sub Station Alpha
Duration: 55 min 57 s
Compression mode: Lossless
Language: English
Default: No
Forced: No

ssl  EZTV RSS EZTV Status | EZTV API | DMCA: [email protected]