eztv.tf | eztvstatus.org
Search title:  
TV Packs only
 

Greys Anatomy S20E07 She Used to Be Mine 720p DSNP WEB-DL DDP5 1 H 264-NTb EZTV

Episode Breakdown
Grey's Anatomy
Grey's Anatomy TV Show S20E07

Season: 20
Episode: 7
Air Date: 9 May, 2024
Download Links
     Torrent Download     Magnet Download
     Anonymous Download
Added 20 days ago by eztv (verified).
Tracker Statistics
Seeds: 11
Peers: 7
Stats generated @ 20:39 on 12th Jun 2024
Torrent Info
Torrent File: Greys Anatomy S20E07 She Used to Be Mine 720p DSNP WEB-DL DDP5 1 H 264-NTb[EZTVx.to].mkv
Torrent Hash: 70D213C76463FF0B3B344220979A7FAB7DF90C26
Filesize: 1.15 GB
Released: 23rd May 2024

File Format: MKV (Matroska)
Resolution: 1280x720 px
Aspect Ratio: 16:9
Alternate Releases S L
Greys Anatomy S20E07 720p HDTV x264-SYNCOPY 298 68
Greys Anatomy S20E07 480p x264-mSD 56 16
Greys Anatomy S20E07 XviD-AFG 13 5
Greys Anatomy S20E07 1080p HEVC x265-MeGusta 86 23
Greys Anatomy S20E07 1080p WEB h264-ELEANOR 39 10
Greys Anatomy S20E07 WEBRip x264-XEN0N 19 3
Greys Anatomy S20E07 720p x264-FENiX 13 5

Grey's Anatomy S20E07 - She Used to Be Mine

Summary:

An unexpectedly complex case brings back painful memories for Simone. Jules and Blue make a high-stakes bet on who can finish their procedure log first. Richard suspects Winston is avoiding him.



Greys Anatomy S20E07 She Used to Be Mine 720p DSNP WEB-DL DDP5 1 H 264-NTb EZTV
Grey's Anatomy S20E7 Screenshot


General
Unique ID: 199295115241635516344218319115591605678 (0x95EED7D040124EF8EDDDDD476063DDAE)
Complete name: Greys Anatomy S20E07 She Used to Be Mine 720p DSNP WEB-DL DDP5 1 H 264-NTb.mkv
Format: Matroska
Format version: Version 4
File size: 1.15 GiB
Duration: 43 min 5 s
Overall bit rate mode: Variable
Overall bit rate: 3 820 kb/s
Frame rate: 23.976 FPS
Writing application: mkvmerge v84.0 ('Sleeper') 64-bit
Writing library: libebml v1.4.5 + libmatroska v1.7.1

Video
ID: 1
Format: AVC
Format/Info: Advanced Video Codec
Format profile: [email protected]
Format settings: CABAC / 4 Ref Frames
Format settings, CABAC: Yes
Format settings, Reference frames: 4 frames
Codec ID: V_MPEG4/ISO/AVC
Duration: 43 min 5 s
Bit rate mode: Variable
Bit rate: 3 174 kb/s
Maximum bit rate: 6 375 kb/s
Width: 1 280 pixels
Height: 720 pixels
Display aspect ratio: 16:9
Frame rate mode: Constant
Frame rate: 23.976 (24000/1001) FPS
Color space: YUV
Chroma subsampling: 4:2:0
Bit depth: 8 bits
Scan type: Progressive
Bits/(Pixel*Frame): 0.144
Time code of first frame: 00:00:00:0000000000
Stream size: 978 MiB (83%)
Default: Yes
Forced: No
Color range: Limited
Color primaries: BT.709
Transfer characteristics: BT.709
Matrix coefficients: BT.709

Audio
ID: 2
Format: E-AC-3
Format/Info: Enhanced AC-3
Commercial name: Dolby Digital Plus
Codec ID: A_EAC3
Duration: 43 min 5 s
Bit rate mode: Constant
Bit rate: 640 kb/s
Channel(s): 6 channels
Channel layout: L R C LFE Ls Rs
Sampling rate: 48.0 kHz
Frame rate: 31.250 FPS (1536 SPF)
Compression mode: Lossy
Stream size: 197 MiB (17%)
Language: English
Service kind: Complete Main
Default: Yes
Forced: No

Text #1
ID: 3
Format: UTF-8
Codec ID: S_TEXT/UTF8
Codec ID/Info: UTF-8 Plain Text
Duration: 42 min 11 s
Bit rate: 106 b/s
Frame rate: 0.349 FPS
Count of elements: 884
Stream size: 32.9 KiB (0%)
Language: English
Default: No
Forced: No

Text #2
ID: 4
Format: UTF-8
Codec ID: S_TEXT/UTF8
Codec ID/Info: UTF-8 Plain Text
Duration: 42 min 11 s
Bit rate: 114 b/s
Frame rate: 0.363 FPS
Count of elements: 918
Stream size: 35.3 KiB (0%)
Title: SDH
Language: English
Default: No
Forced: No

Text #3
ID: 5
Format: UTF-8
Codec ID: S_TEXT/UTF8
Codec ID/Info: UTF-8 Plain Text
Duration: 42 min 45 s
Bit rate: 89 b/s
Frame rate: 0.307 FPS
Count of elements: 787
Stream size: 28.2 KiB (0%)
Language: Czech
Default: No
Forced: No

Text #4
ID: 6
Format: UTF-8
Codec ID: S_TEXT/UTF8
Codec ID/Info: UTF-8 Plain Text
Duration: 42 min 45 s
Bit rate: 92 b/s
Frame rate: 0.317 FPS
Count of elements: 814
Stream size: 29.1 KiB (0%)
Language: Danish
Default: No
Forced: No

Text #5
ID: 7
Format: UTF-8
Codec ID: S_TEXT/UTF8
Codec ID/Info: UTF-8 Plain Text
Duration: 42 min 45 s
Bit rate: 95 b/s
Frame rate: 0.316 FPS
Count of elements: 811
Stream size: 30.0 KiB (0%)
Language: German
Default: No
Forced: No

Text #6
ID: 8
Format: UTF-8
Codec ID: S_TEXT/UTF8
Codec ID/Info: UTF-8 Plain Text
Duration: 42 min 45 s
Bit rate: 89 b/s
Frame rate: 0.315 FPS
Count of elements: 807
Stream size: 28.0 KiB (0%)
Title: Spanish (Latin America)
Language: Spanish (Latin America)
Default: No
Forced: No

Text #7
ID: 9
Format: UTF-8
Codec ID: S_TEXT/UTF8
Codec ID/Info: UTF-8 Plain Text
Duration: 42 min 45 s
Bit rate: 82 b/s
Frame rate: 0.326 FPS
Count of elements: 836
Stream size: 25.8 KiB (0%)
Title: Spanish (Spain)
Language: Spanish (ES)
Default: No
Forced: No

Text #8
ID: 10
Format: UTF-8
Codec ID: S_TEXT/UTF8
Codec ID/Info: UTF-8 Plain Text
Duration: 42 min 45 s
Bit rate: 90 b/s
Frame rate: 0.311 FPS
Count of elements: 798
Stream size: 28.5 KiB (0%)
Language: Finnish
Default: No
Forced: No

Text #9
ID: 11
Format: UTF-8
Codec ID: S_TEXT/UTF8
Codec ID/Info: UTF-8 Plain Text
Duration: 42 min 45 s
Bit rate: 94 b/s
Frame rate: 0.317 FPS
Count of elements: 813
Stream size: 29.6 KiB (0%)
Language: French (FR)
Default: No
Forced: No

Text #10
ID: 12
Format: UTF-8
Codec ID: S_TEXT/UTF8
Codec ID/Info: UTF-8 Plain Text
Duration: 42 min 45 s
Bit rate: 93 b/s
Frame rate: 0.311 FPS
Count of elements: 799
Stream size: 29.4 KiB (0%)
Language: Hungarian
Default: No
Forced: No

Text #11
ID: 13
Format: UTF-8
Codec ID: S_TEXT/UTF8
Codec ID/Info: UTF-8 Plain Text
Duration: 42 min 45 s
Bit rate: 83 b/s
Frame rate: 0.310 FPS
Count of elements: 796
Stream size: 26.1 KiB (0%)
Language: Italian
Default: No
Forced: No

Text #12
ID: 14
Format: UTF-8
Codec ID: S_TEXT/UTF8
Codec ID/Info: UTF-8 Plain Text
Duration: 42 min 45 s
Bit rate: 106 b/s
Frame rate: 0.324 FPS
Count of elements: 831
Stream size: 33.2 KiB (0%)
Language: Korean
Default: No
Forced: No

Text #13
ID: 15
Format: UTF-8
Codec ID: S_TEXT/UTF8
Codec ID/Info: UTF-8 Plain Text
Duration: 42 min 45 s
Bit rate: 79 b/s
Frame rate: 0.200 FPS
Count of elements: 513
Stream size: 24.8 KiB (0%)
Language: Dutch
Default: No
Forced: No

Text #14
ID: 16
Format: UTF-8
Codec ID: S_TEXT/UTF8
Codec ID/Info: UTF-8 Plain Text
Duration: 42 min 45 s
Bit rate: 85 b/s
Frame rate: 0.230 FPS
Count of elements: 590
Stream size: 26.8 KiB (0%)
Language: Norwegian
Default: No
Forced: No

Text #15
ID: 17
Format: UTF-8
Codec ID: S_TEXT/UTF8
Codec ID/Info: UTF-8 Plain Text
Duration: 42 min 45 s
Bit rate: 87 b/s
Frame rate: 0.318 FPS
Count of elements: 815
Stream size: 27.4 KiB (0%)
Language: Portuguese (BR)
Default: No
Forced: No

Text #16
ID: 18
Format: UTF-8
Codec ID: S_TEXT/UTF8
Codec ID/Info: UTF-8 Plain Text
Duration: 42 min 45 s
Bit rate: 87 b/s
Frame rate: 0.239 FPS
Count of elements: 612
Stream size: 27.4 KiB (0%)
Language: Romanian
Default: No
Forced: No

Text #17
ID: 19
Format: UTF-8
Codec ID: S_TEXT/UTF8
Codec ID/Info: UTF-8 Plain Text
Duration: 42 min 45 s
Bit rate: 87 b/s
Frame rate: 0.323 FPS
Count of elements: 828
Stream size: 27.4 KiB (0%)
Language: Slovak
Default: No
Forced: No

Text #18
ID: 20
Format: UTF-8
Codec ID: S_TEXT/UTF8
Codec ID/Info: UTF-8 Plain Text
Duration: 42 min 45 s
Bit rate: 92 b/s
Frame rate: 0.269 FPS
Count of elements: 690
Stream size: 29.0 KiB (0%)
Language: Swedish
Default: No
Forced: No

Text #19
ID: 21
Format: UTF-8
Codec ID: S_TEXT/UTF8
Codec ID/Info: UTF-8 Plain Text
Duration: 42 min 45 s
Bit rate: 96 b/s
Frame rate: 0.323 FPS
Count of elements: 829
Stream size: 30.1 KiB (0%)
Language: Turkish
Default: No
Forced: No

Text #20
ID: 22
Format: UTF-8
Codec ID: S_TEXT/UTF8
Codec ID/Info: UTF-8 Plain Text
Duration: 42 min 45 s
Bit rate: 76 b/s
Frame rate: 0.326 FPS
Count of elements: 837
Stream size: 24.1 KiB (0%)
Language: Chinese (Traditional)
Default: No
Forced: No
ssl  EZTV RSS EZTV Status | EZTV API | DMCA: [email protected]