eztv.tf | eztvstatus.org
Search title:  
TV Packs only
 

Blossoms Shanghai S01E14 2023 1080p WEB-DL H265 AAC-HHWEB EZTV

Episode Breakdown
Blossoms Shanghai
Blossoms Shanghai TV Show S01E14

Season: 1
Episode: 14
Air Date: 1 January, 2024
Download Links
     Torrent Download     Magnet Download
     Anonymous Download
Added 5 days ago by eztv (verified).
Tracker Statistics
Seeds: 32
Peers: 2
Stats generated @ 18:22 on 21st May 2024
Torrent Info
Torrent File: Blossoms.Shanghai.S01E14.2023.1080p.WEB-DL.H265.AAC-HHWEB[EZTVx.to].mkv
Torrent Hash: 79375106979C15C92CE064DF87FB5DFA4C1DF24E
Filesize: 334 MB
Released: 15th May 2024

File Format: MKV (Matroska)
Resolution: 1920x1080 px
Aspect Ratio: 16:9

Blossoms Shanghai S01E14 - Episode 14

Summary:
Blossoms Shanghai S01E14 2023 1080p WEB-DL H265 AAC-HHWEB EZTV
Blossoms Shanghai S1E14 Screenshot


General
Unique ID: 278259808064616853128757182531234550695 (0xD156E3C13941ADC492675880017DD3A7)
Complete name: Blossoms.Shanghai.S01E14.2023.1080p.WEB-DL.H265.AAC-HHWEB.mkv
Format: Matroska
Format version: Version 4
File size: 334 MiB
Duration: 46 min 23 s
Overall bit rate: 1 007 kb/s
Frame rate: 25.000 FPS
Encoded date: 2024-01-01 12:13:37 UTC
Writing application: mkvmerge v76.0 ('Celebration') 64-bit
Writing library: libebml v1.4.4 + libmatroska v1.7.1 / Lavf60.10.100

Video
ID: 1
Format: HEVC
Format/Info: High Efficiency Video Coding
Format profile: Main@L4@Main
Codec ID: V_MPEGH/ISO/HEVC
Duration: 46 min 23 s
Bit rate: 785 kb/s
Width: 1 920 pixels
Height: 1 080 pixels
Display aspect ratio: 16:9
Frame rate mode: Constant
Frame rate: 25.000 FPS
Color space: YUV
Chroma subsampling: 4:2:0
Bit depth: 8 bits
Bits/(Pixel*Frame): 0.015
Stream size: 261 MiB (78%)
Default: Yes
Forced: No
Color range: Limited
Color primaries: BT.709
Transfer characteristics: BT.709
Matrix coefficients: BT.709

Audio #1
ID: 2
Format: AAC LC
Format/Info: Advanced Audio Codec Low Complexity
Codec ID: A_AAC-2
Duration: 46 min 23 s
Bit rate: 93.4 kb/s
Channel(s): 2 channels
Channel layout: L R
Sampling rate: 48.0 kHz
Frame rate: 46.875 FPS (1024 SPF)
Compression mode: Lossy
Delay relative to video: -42 ms
Stream size: 31.0 MiB (9%)
Title: T F
Language: Chinese
Default: Yes
Forced: No

Audio #2
ID: 3
Format: AAC LC
Format/Info: Advanced Audio Codec Low Complexity
Codec ID: A_AAC-2
Duration: 46 min 23 s
Bit rate: 125 kb/s
Channel(s): 2 channels
Channel layout: L R
Sampling rate: 48.0 kHz
Frame rate: 46.875 FPS (1024 SPF)
Compression mode: Lossy
Delay relative to video: -42 ms
Stream size: 41.6 MiB (12%)
Title: F
Language: Chinese
Default: No
Forced: No
ssl  EZTV RSS EZTV Status | EZTV API | DMCA: [email protected]