eztv.tf | eztvstatus.org
Search title:  
TV Packs only
 

Mastermind AU S04E22 720p WEB-DL AAC2 0 H 264-NTb EZTV

Episode Breakdown
Autism Mastermind
Autism Mastermind TV Show S04E22

Season: 4
Episode: 22
Download Links
     Torrent Download     Magnet Download
     Anonymous Download
Added 9 days ago by eztv (verified).
Tracker Statistics
Seeds: 1
Peers: 0
Stats generated @ 06:00 on 25th May 2024
Torrent Info
Torrent File: Mastermind AU S04E22 720p WEB-DL AAC2 0 H 264-NTb[EZTVx.to].mkv
Torrent Hash: 9B2ACC10EE83B6DCF46CEC57F21FA7D19CB40728
Filesize: 301 MB
Released: 15th May 2024

File Format: MKV (Matroska)
Resolution: 1280x720 px
Aspect Ratio: 16:9

Episode Description
Mastermind AU S04E22 720p WEB-DL AAC2 0 H 264-NTb EZTV
Autism Mastermind S4E22 Screenshot


General
Complete name: Mastermind AU S04E22 720p WEB-DL AAC2 0 H 264-NTb.mkv
Format: MPEG-4
Format profile: Base Media
Codec ID: isom (isom/iso2/avc1/mp41)
File size: 301 MiB
Duration: 25 min 41 s
Overall bit rate mode: Constant
Overall bit rate: 1 637 kb/s
Frame rate: 25.000 FPS
Writing application: Lavf58.20.100
FileExtension_Invalid: braw mov mp4 m4v m4a m4b m4p m4r 3ga 3gpa 3gpp 3gp 3gpp2 3g2 k3g jpm jpx mqv ismv isma ismt f4a f4b f4v

Video
ID: 1
Format: AVC
Format/Info: Advanced Video Codec
Format profile: [email protected]
Format settings: CABAC / 4 Ref Frames
Format settings, CABAC: Yes
Format settings, Reference frames: 4 frames
Format settings, GOP: M=4, N=50
Codec ID: avc1
Codec ID/Info: Advanced Video Coding
Duration: 25 min 41 s
Bit rate mode: Constant
Bit rate: 1 500 kb/s
Width: 1 280 pixels
Height: 720 pixels
Display aspect ratio: 16:9
Frame rate mode: Constant
Frame rate: 25.000 FPS
Color space: YUV
Chroma subsampling: 4:2:0
Bit depth: 8 bits
Scan type: Progressive
Bits/(Pixel*Frame): 0.065
Stream size: 276 MiB (92%)
Color range: Limited
Color primaries: BT.709
Transfer characteristics: BT.709
Matrix coefficients: BT.709
Codec configuration box: avcC

Audio
ID: 2
Format: AAC LC
Format/Info: Advanced Audio Codec Low Complexity
Codec ID: mp4a-40-2
Duration: 25 min 41 s
Bit rate mode: Constant
Bit rate: 128 kb/s
Channel(s): 2 channels
Channel layout: L R
Sampling rate: 44.1 kHz
Frame rate: 43.066 FPS (1024 SPF)
Compression mode: Lossy
Stream size: 23.5 MiB (8%)
Default: Yes
Alternate group: 1
ssl  EZTV RSS EZTV Status | EZTV API | DMCA: [email protected]