eztv.tf | eztvstatus.org
Search title:  
TV Packs only
 

Last Week Tonight with John Oliver S11E11 720p AMZN WEB-DL AAC2 0 H 264-NTb EZTV

Episode Breakdown
Last Week Tonight with John Oliver
Last Week Tonight with John Oliver TV Show S11E11

Season: 11
Episode: 11
Air Date: 12 May, 2024
Download Links
     Torrent Download     Magnet Download
     Anonymous Download
Added 11 days ago by eztv (verified).
Tracker Statistics
Seeds: 278
Peers: 15
Stats generated @ 06:18 on 25th May 2024
Torrent Info
Torrent File: Last Week Tonight with John Oliver S11E11 720p AMZN WEB-DL AAC2 0 H 264-NTb[EZTVx.to].mkv
Torrent Hash: AFEC5D36A01A8FF45F0E48B883F02D4112046989
Filesize: 1.39 GB
Released: 13th May 2024

File Format: MKV (Matroska)
Resolution: 1280x720 px
Aspect Ratio: 16:9
Alternate Releases S L
Last Week Tonight with John Oliver S11E11 1080p AMZN WEB-DL AAC2 0 H 264-NTb 615 58

Last Week Tonight with John Oliver S11E11 - Opioid Settlements

Summary:

This week's main story is about how governments are spending opioid settlements, why there's still time to make sure they're spent in better ways, and which invention is the greatest in human history. Undeniably, the greatest.



Last Week Tonight with John Oliver S11E11 720p AMZN WEB-DL AAC2 0 H 264-NTb EZTV
Last Week Tonight with John Oliver S11E11 Screenshot


General
Unique ID: 33864106950205724065600923541372615740 (0x1979FD61030869A5D6D8021B66933C3C)
Complete name: Last Week Tonight with John Oliver S11E11 720p AMZN WEB-DL AAC2 0 H 264-NTb.mkv
Format: Matroska
Format version: Version 4
File size: 1.39 GiB
Duration: 38 min 23 s
Overall bit rate: 5 201 kb/s
Frame rate: 29.970 FPS
Writing application: mkvmerge v81.0 ('Milliontown') 64-bit
Writing library: libebml v1.4.4 + libmatroska v1.7.1

Video
ID: 1
Format: AVC
Format/Info: Advanced Video Codec
Format profile: [email protected]
Format settings: CABAC / 4 Ref Frames
Format settings, CABAC: Yes
Format settings, Reference frames: 4 frames
Codec ID: V_MPEG4/ISO/AVC
Duration: 38 min 23 s
Bit rate mode: Constant
Bit rate: 5 070 kb/s
Nominal bit rate: 6 000 kb/s
Width: 1 280 pixels
Height: 720 pixels
Display aspect ratio: 16:9
Frame rate mode: Constant
Frame rate: 29.970 (30000/1001) FPS
Color space: YUV
Chroma subsampling: 4:2:0
Bit depth: 8 bits
Scan type: Progressive
Bits/(Pixel*Frame): 0.184
Stream size: 1.36 GiB (97%)
Default: Yes
Forced: No
Color range: Limited
Color primaries: BT.709
Transfer characteristics: BT.709
Matrix coefficients: BT.709

Audio
ID: 2
Format: AAC LC
Format/Info: Advanced Audio Codec Low Complexity
Codec ID: A_AAC-2
Duration: 38 min 23 s
Bit rate: 128 kb/s
Channel(s): 2 channels
Channel layout: L R
Sampling rate: 48.0 kHz
Frame rate: 46.875 FPS (1024 SPF)
Compression mode: Lossy
Stream size: 35.1 MiB (2%)
Language: English (US)
Default: Yes
Forced: No

Text #1
ID: 3
Format: UTF-8
Codec ID: S_TEXT/UTF8
Codec ID/Info: UTF-8 Plain Text
Duration: 37 min 40 s
Bit rate: 123 b/s
Frame rate: 0.609 FPS
Count of elements: 1376
Stream size: 34.2 KiB (0%)
Language: English (US)
Default: No
Forced: No

Text #2
ID: 4
Format: UTF-8
Codec ID: S_TEXT/UTF8
Codec ID/Info: UTF-8 Plain Text
Duration: 38 min 7 s
Bit rate: 123 b/s
Frame rate: 0.606 FPS
Count of elements: 1387
Stream size: 34.6 KiB (0%)
Title: SDH
Language: English (US)
Default: No
Forced: No

ssl  EZTV RSS EZTV Status | EZTV API | DMCA: [email protected]