eztv.tf | eztvstatus.org
Search title:  
TV Packs only
 

Tell No One S01E09 2024 1080p WEB-DL H264 AAC-HHWEB EZTV

Episode Breakdown
Tell No One
Tell No One TV Show S01E09

Season: 1
Episode: 9
Air Date: 12 May, 2024
Download Links
     Torrent Download     Magnet Download
     Anonymous Download
Added 1 month ago by eztv (verified).
Tracker Statistics
Seeds: 3
Peers: 5
Stats generated @ 23:13 on 20th Jun 2024
Torrent Info
Torrent File: Tell.No.One.S01E09.2024.1080p.WEB-DL.H264.AAC-HHWEB[EZTVx.to].mkv
Torrent Hash: 33CBCBEF7F97D019EE7FEDCFBCE8B190D708493F
Filesize: 490 MB
Released: 12th May 2024

File Format: MKV (Matroska)
Resolution: 1920x1080 px
Aspect Ratio: 16:9

Tell No One S01E09 - Episode 9

Summary:


Tell No One S01E09 2024 1080p WEB-DL H264 AAC-HHWEB EZTV
Tell No One S1E9 Screenshot


General
Unique ID: 104560366915890491702779534050655793570 (0x4EA9981B20CFA044DEE1765836C0F1A2)
Complete name: Tell.No.One.S01E09.2024.1080p.WEB-DL.H264.AAC-HHWEB.mkv
Format: Matroska
Format version: Version 4
File size: 490 MiB
Duration: 41 min 12 s
Overall bit rate: 1 661 kb/s
Frame rate: 25.000 FPS
Encoded date: 2024-05-12 10:05:50 UTC
Writing application: mkvmerge v78.0 ('Running') 64-bit
Writing library: libebml v1.4.4 + libmatroska v1.7.1 / Lavf60.10.100

Video
ID: 1
Format: AVC
Format/Info: Advanced Video Codec
Format profile: High@L4
Format settings: CABAC / 3 Ref Frames
Format settings, CABAC: Yes
Format settings, Reference frames: 3 frames
Codec ID: V_MPEG4/ISO/AVC
Duration: 41 min 11 s
Bit rate: 1 467 kb/s
Width: 1 920 pixels
Height: 800 pixels
Display aspect ratio: 2.40:1
Frame rate mode: Constant
Frame rate: 25.000 FPS
Color space: YUV
Chroma subsampling: 4:2:0
Bit depth: 8 bits
Scan type: Progressive
Bits/(Pixel*Frame): 0.038
Stream size: 432 MiB (88%)
Language: Chinese (CH)
Default: Yes
Forced: No
Color range: Limited
Color primaries: BT.709
Transfer characteristics: BT.709
Matrix coefficients: BT.709

Audio
ID: 2
Format: AAC LC
Format/Info: Advanced Audio Codec Low Complexity
Codec ID: A_AAC-2
Duration: 41 min 12 s
Bit rate: 192 kb/s
Channel(s): 2 channels
Channel layout: L R
Sampling rate: 44.1 kHz
Frame rate: 43.066 FPS (1024 SPF)
Compression mode: Lossy
Stream size: 56.6 MiB (12%)
Default: No
Forced: No
ssl  EZTV RSS EZTV Status | EZTV API | DMCA: [email protected]