eztv.tf | eztvstatus.org
Search title:  
TV Packs only
 

Tell No One S01E05 2024 1080p WEB-DL H264 AAC-HHWEB EZTV

Episode Breakdown
Tell No One
Tell No One TV Show S01E05

Season: 1
Episode: 5
Air Date: 9 May, 2024
Download Links
     Torrent Download     Magnet Download
     Anonymous Download
Added 1 month ago by eztv (verified).
Tracker Statistics
Seeds: 4
Peers: 2
Stats generated @ 20:23 on 12th Jun 2024
Torrent Info
Torrent File: Tell.No.One.S01E05.2024.1080p.WEB-DL.H264.AAC-HHWEB[EZTVx.to].mkv
Torrent Hash: 2A22597A6B5DB0735B353F365CB32927E46F9FEC
Filesize: 507 MB
Released: 9th May 2024

File Format: MKV (Matroska)
Resolution: 1920x1080 px
Aspect Ratio: 16:9

Tell No One S01E05 - Episode 5

Summary:


Tell No One S01E05 2024 1080p WEB-DL H264 AAC-HHWEB EZTV
Tell No One S1E5 Screenshot


General
Unique ID: 31972385645357225954780066254046683148 (0x180DA85150FC381EA25C898EC800E00C)
Complete name: Tell.No.One.S01E05.2024.1080p.WEB-DL.H264.AAC-HHWEB.mkv
Format: Matroska
Format version: Version 4
File size: 507 MiB
Duration: 40 min 43 s
Overall bit rate: 1 740 kb/s
Frame rate: 25.000 FPS
Encoded date: 2024-05-09 09:51:27 UTC
Writing application: mkvmerge v78.0 ('Running') 64-bit
Writing library: libebml v1.4.4 + libmatroska v1.7.1 / Lavf60.10.100

Video
ID: 1
Format: AVC
Format/Info: Advanced Video Codec
Format profile: High@L4
Format settings: CABAC / 3 Ref Frames
Format settings, CABAC: Yes
Format settings, Reference frames: 3 frames
Codec ID: V_MPEG4/ISO/AVC
Duration: 40 min 42 s
Bit rate: 1 546 kb/s
Width: 1 920 pixels
Height: 800 pixels
Display aspect ratio: 2.40:1
Frame rate mode: Constant
Frame rate: 25.000 FPS
Color space: YUV
Chroma subsampling: 4:2:0
Bit depth: 8 bits
Scan type: Progressive
Bits/(Pixel*Frame): 0.040
Stream size: 450 MiB (89%)
Language: Chinese (CH)
Default: Yes
Forced: No
Color range: Limited
Color primaries: BT.709
Transfer characteristics: BT.709
Matrix coefficients: BT.709

Audio
ID: 2
Format: AAC LC
Format/Info: Advanced Audio Codec Low Complexity
Codec ID: A_AAC-2
Duration: 40 min 43 s
Bit rate: 192 kb/s
Channel(s): 2 channels
Channel layout: L R
Sampling rate: 44.1 kHz
Frame rate: 43.066 FPS (1024 SPF)
Compression mode: Lossy
Stream size: 55.9 MiB (11%)
Default: No
Forced: No
ssl  EZTV RSS EZTV Status | EZTV API | DMCA: [email protected]