eztv.tf | eztvstatus.org
Search title:  
TV Packs only
 

Tell No One S01E01 2024 1080p WEB-DL H264 AAC-HHWEB EZTV

Episode Breakdown
Tell No One
Tell No One TV Show S01E01

Season: 1
Episode: 1
Air Date: 8 May, 2024
Download Links
     Torrent Download     Magnet Download
     Anonymous Download
Added 1 month ago by eztv (verified).
Tracker Statistics
Seeds: 11
Peers: 4
Stats generated @ 20:36 on 12th Jun 2024
Torrent Info
Torrent File: Tell.No.One.S01E01.2024.1080p.WEB-DL.H264.AAC-HHWEB[EZTVx.to].mkv
Torrent Hash: 39A2ADC7E4B9B80F1B32A1E4950F64C1B10CA1D9
Filesize: 520 MB
Released: 9th May 2024

File Format: MKV (Matroska)
Resolution: 1920x1080 px
Aspect Ratio: 16:9

Tell No One S01E01 - Episode 1

Summary:
Tell No One S01E01 2024 1080p WEB-DL H264 AAC-HHWEB EZTV
Tell No One S1E1 Screenshot


General
Unique ID: 62532310043885550087588676614681558659 (0x2F0B48EB4EF9181DF87EA07755687E83)
Complete name: Tell.No.One.S01E01.2024.1080p.WEB-DL.H264.AAC-HHWEB.mkv
Format: Matroska
Format version: Version 4
File size: 520 MiB
Duration: 38 min 30 s
Overall bit rate: 1 890 kb/s
Frame rate: 25.000 FPS
Encoded date: 2024-05-08 09:53:21 UTC
Writing application: mkvmerge v78.0 ('Running') 64-bit
Writing library: libebml v1.4.4 + libmatroska v1.7.1 / Lavf60.10.100

Video
ID: 1
Format: AVC
Format/Info: Advanced Video Codec
Format profile: High@L4
Format settings: CABAC / 3 Ref Frames
Format settings, CABAC: Yes
Format settings, Reference frames: 3 frames
Codec ID: V_MPEG4/ISO/AVC
Duration: 38 min 29 s
Bit rate: 1 695 kb/s
Width: 1 920 pixels
Height: 800 pixels
Display aspect ratio: 2.40:1
Frame rate mode: Constant
Frame rate: 25.000 FPS
Color space: YUV
Chroma subsampling: 4:2:0
Bit depth: 8 bits
Scan type: Progressive
Bits/(Pixel*Frame): 0.044
Stream size: 467 MiB (90%)
Language: Chinese (CH)
Default: Yes
Forced: No
Color range: Limited
Color primaries: BT.709
Transfer characteristics: BT.709
Matrix coefficients: BT.709

Audio
ID: 2
Format: AAC LC
Format/Info: Advanced Audio Codec Low Complexity
Codec ID: A_AAC-2
Duration: 38 min 30 s
Bit rate: 192 kb/s
Channel(s): 2 channels
Channel layout: L R
Sampling rate: 44.1 kHz
Frame rate: 43.066 FPS (1024 SPF)
Compression mode: Lossy
Stream size: 52.9 MiB (10%)
Default: No
Forced: No
ssl  EZTV RSS EZTV Status | EZTV API | DMCA: [email protected]