eztv.tf | eztvstatus.org
Search title:  
TV Packs only
 

Ancient Powers S01E04 Kill or Be Killed 1080p AMZN WEB-DL DDP2 0 H 264-FLUX EZTV

Episode Breakdown
Ancient Powers
Ancient Powers TV Show S01E04

Season: 1
Episode: 4
Download Links
     Torrent Download     Magnet Download
     Anonymous Download
Added 2 months ago by eztv (verified).
Tracker Statistics
Seeds: 0
Peers: 3
Stats generated @ 08:56 on 18th Jul 2024
Torrent Info
Torrent File: Ancient Powers S01E04 Kill or Be Killed 1080p AMZN WEB-DL DDP2 0 H 264-FLUX[EZTVx.to].mkv
Torrent Hash: F550D77EBF63C4436F9FB6D434AC8D9266073486
Filesize: 3.04 GB
Released: 6th May 2024

File Format: MKV (Matroska)
Resolution: 1920x1080 px
Aspect Ratio: 16:9
Alternate Releases S L
Ancient Powers S01E04 1080p WEB H264-CBFM 1 0
Ancient Powers S01E04 XviD-AFG 1 0
Ancient Powers S01E04 1080p HEVC x265-MeGusta 1 0

Episode Description
Ancient Powers S01E04 Kill or Be Killed 1080p AMZN WEB-DL DDP2 0 H 264-FLUX EZTV
Ancient Powers S1E4 Screenshot


General
Unique ID: 189693757831398818570170807487612335264 (0x8EB5B058484E2A572279287BFE0434A0)
Complete name: Ancient Powers S01E04 Kill or Be Killed 1080p AMZN WEB-DL DDP2 0 H 264-FLUX.mkv
Format: Matroska
Format version: Version 4
File size: 3.04 GiB
Duration: 48 min 5 s
Overall bit rate: 9 036 kb/s
Frame rate: 25.000 FPS
Writing application: mkvmerge v81.0 ('Milliontown') 64-bit
Writing library: libebml v1.4.4 + libmatroska v1.7.1

Video
ID: 1
Format: AVC
Format/Info: Advanced Video Codec
Format profile: High@L4
Format settings: CABAC / 4 Ref Frames
Format settings, CABAC: Yes
Format settings, Reference frames: 4 frames
Codec ID: V_MPEG4/ISO/AVC
Duration: 48 min 5 s
Bit rate mode: Constant
Bit rate: 8 809 kb/s
Nominal bit rate: 10 000 kb/s
Width: 1 920 pixels
Height: 1 080 pixels
Display aspect ratio: 16:9
Frame rate mode: Constant
Frame rate: 25.000 FPS
Color space: YUV
Chroma subsampling: 4:2:0
Bit depth: 8 bits
Scan type: Progressive
Bits/(Pixel*Frame): 0.170
Stream size: 2.96 GiB (97%)
Language: English (GB)
Default: Yes
Forced: No
Color range: Limited
Color primaries: BT.709
Transfer characteristics: BT.709
Matrix coefficients: BT.709

Audio
ID: 2
Format: E-AC-3
Format/Info: Enhanced AC-3
Commercial name: Dolby Digital Plus
Codec ID: A_EAC3
Duration: 48 min 5 s
Bit rate mode: Constant
Bit rate: 224 kb/s
Channel(s): 2 channels
Channel layout: L R
Sampling rate: 48.0 kHz
Frame rate: 31.250 FPS (1536 SPF)
Compression mode: Lossy
Stream size: 77.0 MiB (2%)
Language: English
Service kind: Complete Main
Default: Yes
Forced: No

Text #1
ID: 3
Format: UTF-8
Codec ID: S_TEXT/UTF8
Codec ID/Info: UTF-8 Plain Text
Duration: 22 min 6 s
Bit rate: 9 b/s
Frame rate: 0.024 FPS
Count of elements: 32
Stream size: 1.58 KiB (0%)
Title: British | Forced
Language: English (GB)
Default: Yes
Forced: Yes

Text #2
ID: 4
Format: UTF-8
Codec ID: S_TEXT/UTF8
Codec ID/Info: UTF-8 Plain Text
Duration: 47 min 56 s
Bit rate: 69 b/s
Frame rate: 0.245 FPS
Count of elements: 705
Stream size: 24.5 KiB (0%)
Title: British
Language: English (GB)
Default: No
Forced: No

Text #3
ID: 5
Format: UTF-8
Codec ID: S_TEXT/UTF8
Codec ID/Info: UTF-8 Plain Text
Duration: 47 min 56 s
Bit rate: 72 b/s
Frame rate: 0.249 FPS
Count of elements: 716
Stream size: 25.5 KiB (0%)
Title: British | SDH
Language: English (GB)
Default: No
Forced: No

Menu
00:01:11.000: en:Scene 1
00:47:25.000: en:End Credits

ssl  EZTV RSS EZTV Status | EZTV API | DMCA: [email protected]