eztv.tf | eztvstatus.org
Search title:  
TV Packs only
 

2 Days 1 Night S04E225 2019 1080p friDay WEB-DL H264 AAC-ADWeb EZTV

Episode Breakdown
2 Days 1 Night
2 Days 1 Night TV Show S04E225

Season: 4
Episode: 225
Air Date: 5 May, 2024
Download Links
     Torrent Download     Magnet Download
     Anonymous Download
Added 1 month ago by eztv (verified).
Tracker Statistics
Seeds: 0
Peers: 0
Stats generated @ 23:38 on 20th Jun 2024
Torrent Info
Torrent File: 2.Days.1.Night.S04E225.2019.1080p.friDay.WEB-DL.H264.AAC-ADWeb[EZTVx.to].mkv
Torrent Hash: D679132787030AF7201FD9FE3A436E1E85D76707
Filesize: 4.91 GB
Released: 6th May 2024

File Format: MKV (Matroska)
Resolution: 1920x1080 px
Aspect Ratio: 16:9

2 Days 1 Night S04E225 - Two families under one roof (1)

Summary:


2 Days 1 Night S04E225 2019 1080p friDay WEB-DL H264 AAC-ADWeb EZTV
2 Days 1 Night S4E225 Screenshot


General
Unique ID: 83236054217535730522384219358488300921 (0x3E9EAE513BAE3A6D97FCBD164FAE0D79)
Complete name: 2.Days.1.Night.S04E225.2019.1080p.friDay.WEB-DL.H264.AAC-ADWeb.mkv
Format: Matroska
Format version: Version 4
File size: 4.91 GiB
Duration: 1 h 31 min
Overall bit rate: 7 636 kb/s
Frame rate: 29.970 FPS
Encoded date: 2024-05-06 03:10:18 UTC
Writing application: mkvmerge v83.0 ('Circle Of Friends') 64-bit
Writing library: libebml v1.4.5 + libmatroska v1.7.1

Video
ID: 1
Format: AVC
Format/Info: Advanced Video Codec
Format profile: [email protected]
Format settings: CABAC / 1 Ref Frames
Format settings, CABAC: Yes
Format settings, Reference frames: 1 frame
Format settings, GOP: M=1, N=60
Codec ID: V_MPEG4/ISO/AVC
Duration: 1 h 31 min
Bit rate mode: Constant
Bit rate: 7 508 kb/s
Nominal bit rate: 8 000 kb/s
Width: 1 920 pixels
Height: 1 080 pixels
Display aspect ratio: 16:9
Frame rate mode: Constant
Frame rate: 29.970 (30000/1001) FPS
Color space: YUV
Chroma subsampling: 4:2:0
Bit depth: 8 bits
Scan type: Progressive
Bits/(Pixel*Frame): 0.121
Stream size: 4.82 GiB (98%)
Language: English
Default: Yes
Forced: No

Audio
ID: 2
Format: AAC LC
Format/Info: Advanced Audio Codec Low Complexity
Codec ID: A_AAC-2
Duration: 1 h 31 min
Bit rate: 125 kb/s
Channel(s): 2 channels
Channel layout: L R
Sampling rate: 48.0 kHz
Frame rate: 46.875 FPS (1024 SPF)
Compression mode: Lossy
Stream size: 82.5 MiB (2%)
Title: T F
Language: Korean
Default: Yes
Forced: No

Text #1
ID: 3
Format: UTF-8
Codec ID: S_TEXT/UTF8
Codec ID/Info: UTF-8 Plain Text
Duration: 1 h 31 min
Bit rate: 72 b/s
Frame rate: 0.339 FPS
Count of elements: 1860
Stream size: 48.5 KiB (0%)
Title: t S+ S
Language: Chinese
Default: No
Forced: No

Text #2
ID: 4
Format: UTF-8
Codec ID: S_TEXT/UTF8
Codec ID/Info: UTF-8 Plain Text
Duration: 1 h 31 min
Bit rate: 72 b/s
Frame rate: 0.339 FPS
Count of elements: 1860
Stream size: 48.5 KiB (0%)
Title: t S+ S
Language: Chinese
Default: No
Forced: No
ssl  EZTV RSS EZTV Status | EZTV API | DMCA: [email protected]