eztv.tf | eztvstatus.org
Search title:  
TV Packs only
 

In the Name of the Brother S01E28 2024 1080p WEB-DL H264 AAC-HHWEB EZTV

Episode Breakdown
In the Name of the Brother
In the Name of the Brother TV Show S01E28

Season: 1
Episode: 28
Air Date: 4 May, 2024
Download Links
     Torrent Download     Magnet Download
     Anonymous Download
Added 1 month ago by eztv (verified).
Tracker Statistics
Seeds: 4
Peers: 1
Stats generated @ 23:51 on 20th Jun 2024
Torrent Info
Torrent File: In.the.Name.of.the.Brother.S01E28.2024.1080p.WEB-DL.H264.AAC-HHWEB[EZTVx.to].mkv
Torrent Hash: FCDF8471922C0AE3DD991F09286C112E7EB5D7B1
Filesize: 516 MB
Released: 4th May 2024

File Format: MKV (Matroska)
Resolution: 1920x1080 px
Aspect Ratio: 16:9

In the Name of the Brother S01E28 - Episode 28

Summary:


In the Name of the Brother S01E28 2024 1080p WEB-DL H264 AAC-HHWEB EZTV
In the Name of the Brother S1E28 Screenshot


General
Unique ID: 261972126246045554589584136604635589927 (0xC515FF0A73370F6ECA12DD9147EF6D27)
Complete name: In.the.Name.of.the.Brother.S01E28.2024.1080p.WEB-DL.H264.AAC-HHWEB.mkv
Format: Matroska
Format version: Version 4
File size: 516 MiB
Duration: 43 min 17 s
Overall bit rate: 1 667 kb/s
Frame rate: 25.000 FPS
Encoded date: 2024-05-04 11:24:02 UTC
Writing application: mkvmerge v78.0 ('Running') 64-bit
Writing library: libebml v1.4.4 + libmatroska v1.7.1 / Lavf60.10.100

Video
ID: 1
Format: AVC
Format/Info: Advanced Video Codec
Format profile: High@L4
Format settings: CABAC / 3 Ref Frames
Format settings, CABAC: Yes
Format settings, Reference frames: 3 frames
Codec ID: V_MPEG4/ISO/AVC
Duration: 43 min 16 s
Bit rate: 1 473 kb/s
Width: 1 920 pixels
Height: 800 pixels
Display aspect ratio: 2.40:1
Frame rate mode: Constant
Frame rate: 25.000 FPS
Color space: YUV
Chroma subsampling: 4:2:0
Bit depth: 8 bits
Scan type: Progressive
Bits/(Pixel*Frame): 0.038
Stream size: 456 MiB (88%)
Language: Chinese (CH)
Default: Yes
Forced: No
Color range: Limited
Color primaries: BT.709
Transfer characteristics: BT.709
Matrix coefficients: BT.709

Audio
ID: 2
Format: AAC LC
Format/Info: Advanced Audio Codec Low Complexity
Codec ID: A_AAC-2
Duration: 43 min 17 s
Bit rate: 192 kb/s
Channel(s): 2 channels
Channel layout: L R
Sampling rate: 44.1 kHz
Frame rate: 43.066 FPS (1024 SPF)
Compression mode: Lossy
Stream size: 59.4 MiB (12%)
Default: No
Forced: No
ssl  EZTV RSS EZTV Status | EZTV API | DMCA: [email protected]