eztv.tf | eztvstatus.org
Search title:  
TV Packs only
 

American Conspiracy The Octopus Murders S01E01 The End NF WEB-DL 1080p x264 EAC3 NTb EZTV

Episode Breakdown
American Conspiracy: The Octopus Murders
American Conspiracy: The Octopus Murders TV Show S01E01

Season: 1
Episode: 1
Air Date: 28 February, 2024
Download Links
     Torrent Download     Magnet Download
     Anonymous Download
Added 1 month ago by eztv (verified).
Tracker Statistics
Seeds: 0
Peers: 1
Stats generated @ 20:34 on 12th Jun 2024
Torrent Info
Torrent File: American Conspiracy The Octopus Murders S01E01 The End NF WEB-DL 1080p x264 EAC3 NTb[EZTVx.to].mkv
Torrent Hash: D709892A65D78C31C1160267EA96738892125454
Filesize: 2.83 GB
Released: 2nd May 2024

File Format: MKV (Matroska)
Resolution: 1920x1080 px
Aspect Ratio: 16:9
Alternate Releases S L
American Conspiracy The Octopus Murders S01E01 The End 1080p NF WEB-DL DDP5 1 H 264-NTb 4 0
American Conspiracy The Octopus Murders S01E01 1080p WEB h264-EDITH 5 0
American Conspiracy The Octopus Murders S01E01 XviD-AFG 6 0

American Conspiracy: The Octopus Murders S01E01 - The End

Summary:

Photojournalist Christian Hansen continues the work of Danny Casolaro, a reporter who mysteriously died while investigating a major political conspiracy.



American Conspiracy The Octopus Murders S01E01 The End NF WEB-DL 1080p x264 EAC3 NTb EZTV
American Conspiracy: The Octopus Murders S1E1 Screenshot


General
Unique ID: 105591348871440046857729087219282351210 (0x4F702770DE2239B60ACC71AAFA1E146A)
Complete name: American Conspiracy The Octopus Murders S01E01 The End NF WEB-DL 1080p x264 EAC3 NTb.mkv
Format: Matroska
Format version: Version 4
File size: 2.83 GiB
Duration: 48 min 47 s
Overall bit rate mode: Variable
Overall bit rate: 8 300 kb/s
Frame rate: 23.976 FPS
Writing application: mkvmerge v79.0 ('Funeral Pyres') 64-bit
Writing library: libebml v1.4.4 + libmatroska v1.7.1

Video
ID: 1
Format: AVC
Format/Info: Advanced Video Codec
Format profile: High@L4
Format settings: CABAC / 4 Ref Frames
Format settings, CABAC: Yes
Format settings, Reference frames: 4 frames
Codec ID: V_MPEG4/ISO/AVC
Duration: 48 min 47 s
Bit rate mode: Variable
Bit rate: 7 651 kb/s
Maximum bit rate: 20.0 Mb/s
Width: 1 920 pixels
Height: 1 080 pixels
Display aspect ratio: 16:9
Frame rate mode: Constant
Frame rate: 23.976 (24000/1001) FPS
Color space: YUV
Chroma subsampling: 4:2:0
Bit depth: 8 bits
Scan type: Progressive
Bits/(Pixel*Frame): 0.154
Stream size: 2.61 GiB (92%)
Writing library: x264 core 148 r2727 7d026e8
Encoding settings: cabac=1 / ref=4 / deblock=1:0:0 / analyse=0x3:0x111 / me=umh / subme=10 / psy=1 / psy_rd=1.00:0.00 / mixed_ref=1 / me_range=120 / chroma_me=1 / trellis=2 / 8x8dct=1 / cqm=0 / deadzone=21,11 / fast_pskip=1 / chroma_qp_offset=-2 / threads=6 / lookahead_threads=1 / sliced_threads=0 / nr=0 / decimate=1 / interlaced=0 / bluray_compat=0 / stitchable=1 / constrained_intra=0 / bframes=16 / b_pyramid=2 / b_adapt=2 / b_bias=0 / direct=3 / weightb=1 / open_gop=0 / weightp=2 / keyint=240 / keyint_min=121 / scenecut=0 / intra_refresh=0 / rc_lookahead=240 / rc=crf / mbtree=1 / crf=19.0 / qcomp=0.50 / qpmin=6 / qpmax=51 / qpstep=4 / vbv_maxrate=20000 / vbv_bufsize=25000 / crf_max=0.0 / nal_hrd=vbr / filler=0 / ip_ratio=1.40 / aq=1:0.80
Default: Yes
Forced: No

Audio
ID: 2
Format: E-AC-3
Format/Info: Enhanced AC-3
Commercial name: Dolby Digital Plus
Codec ID: A_EAC3
Duration: 48 min 47 s
Bit rate mode: Constant
Bit rate: 640 kb/s
Channel(s): 6 channels
Channel layout: L R C LFE Ls Rs
Sampling rate: 48.0 kHz
Frame rate: 31.250 FPS (1536 SPF)
Compression mode: Lossy
Stream size: 223 MiB (8%)
Language: English
Service kind: Complete Main
Default: Yes
Forced: No

Text #1
ID: 3
Format: UTF-8
Codec ID: S_TEXT/UTF8
Codec ID/Info: UTF-8 Plain Text
Duration: 45 min 5 s
Bit rate: 9 b/s
Frame rate: 0.027 FPS
Count of elements: 72
Stream size: 3.01 KiB (0%)
Title: Forced
Language: English
Default: Yes
Forced: Yes

Text #2
ID: 4
Format: UTF-8
Codec ID: S_TEXT/UTF8
Codec ID/Info: UTF-8 Plain Text
Duration: 47 min 7 s
Bit rate: 97 b/s
Frame rate: 0.260 FPS
Count of elements: 736
Stream size: 33.5 KiB (0%)
Language: English
Default: No
Forced: No

Text #3
ID: 5
Format: UTF-8
Codec ID: S_TEXT/UTF8
Codec ID/Info: UTF-8 Plain Text
Duration: 47 min 29 s
Bit rate: 102 b/s
Frame rate: 0.277 FPS
Count of elements: 788
Stream size: 35.5 KiB (0%)
Title: SDH
Language: English
Default: No
Forced: No

Text #4
ID: 6
Format: UTF-8
Codec ID: S_TEXT/UTF8
Codec ID/Info: UTF-8 Plain Text
Duration: 47 min 21 s
Bit rate: 130 b/s
Frame rate: 0.269 FPS
Count of elements: 763
Stream size: 45.1 KiB (0%)
Language: Arabic
Default: No
Forced: No

Text #5
ID: 7
Format: UTF-8
Codec ID: S_TEXT/UTF8
Codec ID/Info: UTF-8 Plain Text
Duration: 47 min 24 s
Bit rate: 89 b/s
Frame rate: 0.262 FPS
Count of elements: 745
Stream size: 31.0 KiB (0%)
Language: Czech
Default: No
Forced: No

Text #6
ID: 8
Format: UTF-8
Codec ID: S_TEXT/UTF8
Codec ID/Info: UTF-8 Plain Text
Duration: 47 min 24 s
Bit rate: 86 b/s
Frame rate: 0.211 FPS
Count of elements: 601
Stream size: 29.9 KiB (0%)
Language: Danish
Default: No
Forced: No

Text #7
ID: 9
Format: UTF-8
Codec ID: S_TEXT/UTF8
Codec ID/Info: UTF-8 Plain Text
Duration: 47 min 21 s
Bit rate: 94 b/s
Frame rate: 0.259 FPS
Count of elements: 735
Stream size: 32.9 KiB (0%)
Language: German
Default: No
Forced: No

Text #8
ID: 10
Format: UTF-8
Codec ID: S_TEXT/UTF8
Codec ID/Info: UTF-8 Plain Text
Duration: 47 min 24 s
Bit rate: 163 b/s
Frame rate: 0.258 FPS
Count of elements: 733
Stream size: 56.8 KiB (0%)
Language: Greek
Default: No
Forced: No

Text #9
ID: 11
Format: UTF-8
Codec ID: S_TEXT/UTF8
Codec ID/Info: UTF-8 Plain Text
Duration: 47 min 24 s
Bit rate: 87 b/s
Frame rate: 0.255 FPS
Count of elements: 725
Stream size: 30.6 KiB (0%)
Title: Spanish (Latin America) (For English audio)
Language: Spanish (Latin America)
Default: No
Forced: No

Text #10
ID: 12
Format: UTF-8
Codec ID: S_TEXT/UTF8
Codec ID/Info: UTF-8 Plain Text
Duration: 46 min 18 s
Bit rate: 93 b/s
Frame rate: 0.263 FPS
Count of elements: 732
Stream size: 31.7 KiB (0%)
Title: Spanish (Latin America)
Language: Spanish (Latin America)
Default: No
Forced: No

Text #11
ID: 13
Format: UTF-8
Codec ID: S_TEXT/UTF8
Codec ID/Info: UTF-8 Plain Text
Duration: 46 min 30 s
Bit rate: 103 b/s
Frame rate: 0.274 FPS
Count of elements: 765
Stream size: 35.1 KiB (0%)
Title: Spanish (Latin America) (SDH)
Language: Spanish (Latin America)
Default: No
Forced: No

Text #12
ID: 14
Format: UTF-8
Codec ID: S_TEXT/UTF8
Codec ID/Info: UTF-8 Plain Text
Duration: 47 min 24 s
Bit rate: 83 b/s
Frame rate: 0.259 FPS
Count of elements: 738
Stream size: 29.2 KiB (0%)
Title: Spanish (Spain)
Language: Spanish (ES)
Default: No
Forced: No

Text #13
ID: 15
Format: UTF-8
Codec ID: S_TEXT/UTF8
Codec ID/Info: UTF-8 Plain Text
Duration: 47 min 21 s
Bit rate: 91 b/s
Frame rate: 0.251 FPS
Count of elements: 714
Stream size: 31.9 KiB (0%)
Language: Finnish
Default: No
Forced: No

Text #14
ID: 16
Format: UTF-8
Codec ID: S_TEXT/UTF8
Codec ID/Info: UTF-8 Plain Text
Duration: 47 min 22 s
Bit rate: 97 b/s
Frame rate: 0.249 FPS
Count of elements: 709
Stream size: 33.9 KiB (0%)
Language: Filipino
Default: No
Forced: No

Text #15
ID: 17
Format: UTF-8
Codec ID: S_TEXT/UTF8
Codec ID/Info: UTF-8 Plain Text
Duration: 47 min 24 s
Bit rate: 89 b/s
Frame rate: 0.252 FPS
Count of elements: 718
Stream size: 31.1 KiB (0%)
Language: French
Default: No
Forced: No

Text #16
ID: 18
Format: UTF-8
Codec ID: S_TEXT/UTF8
Codec ID/Info: UTF-8 Plain Text
Duration: 47 min 24 s
Bit rate: 118 b/s
Frame rate: 0.278 FPS
Count of elements: 792
Stream size: 41.0 KiB (0%)
Language: Hebrew
Default: No
Forced: No

Text #17
ID: 19
Format: UTF-8
Codec ID: S_TEXT/UTF8
Codec ID/Info: UTF-8 Plain Text
Duration: 47 min 24 s
Bit rate: 85 b/s
Frame rate: 0.263 FPS
Count of elements: 748
Stream size: 29.8 KiB (0%)
Language: Croatian
Default: No
Forced: No

Text #18
ID: 20
Format: UTF-8
Codec ID: S_TEXT/UTF8
Codec ID/Info: UTF-8 Plain Text
Duration: 47 min 24 s
Bit rate: 87 b/s
Frame rate: 0.255 FPS
Count of elements: 725
Stream size: 30.5 KiB (0%)
Language: Hungarian
Default: No
Forced: No

Text #19
ID: 21
Format: UTF-8
Codec ID: S_TEXT/UTF8
Codec ID/Info: UTF-8 Plain Text
Duration: 47 min 24 s
Bit rate: 92 b/s
Frame rate: 0.251 FPS
Count of elements: 714
Stream size: 32.3 KiB (0%)
Language: Indonesian
Default: No
Forced: No

Text #20
ID: 22
Format: UTF-8
Codec ID: S_TEXT/UTF8
Codec ID/Info: UTF-8 Plain Text
Duration: 47 min 21 s
Bit rate: 87 b/s
Frame rate: 0.261 FPS
Count of elements: 742
Stream size: 30.4 KiB (0%)
Language: Italian
Default: No
Forced: No

Text #21
ID: 23
Format: UTF-8
Codec ID: S_TEXT/UTF8
Codec ID/Info: UTF-8 Plain Text
Duration: 47 min 26 s
Bit rate: 89 b/s
Frame rate: 0.280 FPS
Count of elements: 798
Stream size: 31.2 KiB (0%)
Language: Japanese
Default: No
Forced: No

Text #22
ID: 24
Format: UTF-8
Codec ID: S_TEXT/UTF8
Codec ID/Info: UTF-8 Plain Text
Duration: 47 min 21 s
Bit rate: 101 b/s
Frame rate: 0.281 FPS
Count of elements: 798
Stream size: 35.0 KiB (0%)
Language: Korean
Default: No
Forced: No

Text #23
ID: 25
Format: UTF-8
Codec ID: S_TEXT/UTF8
Codec ID/Info: UTF-8 Plain Text
Duration: 47 min 24 s
Bit rate: 87 b/s
Frame rate: 0.260 FPS
Count of elements: 740
Stream size: 30.5 KiB (0%)
Language: Malay
Default: No
Forced: No

Text #24
ID: 26
Format: UTF-8
Codec ID: S_TEXT/UTF8
Codec ID/Info: UTF-8 Plain Text
Duration: 47 min 21 s
Bit rate: 89 b/s
Frame rate: 0.239 FPS
Count of elements: 679
Stream size: 31.0 KiB (0%)
Language: Norwegian Bokmal
Default: No
Forced: No

Text #25
ID: 27
Format: UTF-8
Codec ID: S_TEXT/UTF8
Codec ID/Info: UTF-8 Plain Text
Duration: 47 min 24 s
Bit rate: 87 b/s
Frame rate: 0.240 FPS
Count of elements: 682
Stream size: 30.5 KiB (0%)
Language: Dutch
Default: No
Forced: No

Text #26
ID: 28
Format: UTF-8
Codec ID: S_TEXT/UTF8
Codec ID/Info: UTF-8 Plain Text
Duration: 47 min 24 s
Bit rate: 81 b/s
Frame rate: 0.241 FPS
Count of elements: 685
Stream size: 28.3 KiB (0%)
Language: Polish
Default: No
Forced: No

Text #27
ID: 29
Format: UTF-8
Codec ID: S_TEXT/UTF8
Codec ID/Info: UTF-8 Plain Text
Duration: 47 min 24 s
Bit rate: 90 b/s
Frame rate: 0.264 FPS
Count of elements: 750
Stream size: 31.6 KiB (0%)
Title: Portuguese (Brazil) (For English audio)
Language: Portuguese (BR)
Default: No
Forced: No

Text #28
ID: 30
Format: UTF-8
Codec ID: S_TEXT/UTF8
Codec ID/Info: UTF-8 Plain Text
Duration: 46 min 18 s
Bit rate: 95 b/s
Frame rate: 0.263 FPS
Count of elements: 731
Stream size: 32.4 KiB (0%)
Title: Portuguese (Brazil)
Language: Portuguese (BR)
Default: No
Forced: No

Text #29
ID: 31
Format: UTF-8
Codec ID: S_TEXT/UTF8
Codec ID/Info: UTF-8 Plain Text
Duration: 47 min 29 s
Bit rate: 105 b/s
Frame rate: 0.284 FPS
Count of elements: 809
Stream size: 36.7 KiB (0%)
Title: Portuguese (Brazil) (SDH)
Language: Portuguese (BR)
Default: No
Forced: No

Text #30
ID: 32
Format: UTF-8
Codec ID: S_TEXT/UTF8
Codec ID/Info: UTF-8 Plain Text
Duration: 47 min 24 s
Bit rate: 98 b/s
Frame rate: 0.264 FPS
Count of elements: 751
Stream size: 34.1 KiB (0%)
Title: Portuguese (Portugal)
Language: Portuguese (PT)
Default: No
Forced: No

Text #31
ID: 33
Format: UTF-8
Codec ID: S_TEXT/UTF8
Codec ID/Info: UTF-8 Plain Text
Duration: 47 min 21 s
Bit rate: 92 b/s
Frame rate: 0.249 FPS
Count of elements: 708
Stream size: 31.9 KiB (0%)
Language: Romanian
Default: No
Forced: No

Text #32
ID: 34
Format: UTF-8
Codec ID: S_TEXT/UTF8
Codec ID/Info: UTF-8 Plain Text
Duration: 47 min 24 s
Bit rate: 146 b/s
Frame rate: 0.268 FPS
Count of elements: 761
Stream size: 50.8 KiB (0%)
Language: Russian
Default: No
Forced: No

Text #33
ID: 35
Format: UTF-8
Codec ID: S_TEXT/UTF8
Codec ID/Info: UTF-8 Plain Text
Duration: 47 min 21 s
Bit rate: 83 b/s
Frame rate: 0.206 FPS
Count of elements: 584
Stream size: 28.9 KiB (0%)
Language: Swedish
Default: No
Forced: No

Text #34
ID: 36
Format: UTF-8
Codec ID: S_TEXT/UTF8
Codec ID/Info: UTF-8 Plain Text
Duration: 47 min 24 s
Bit rate: 227 b/s
Frame rate: 0.264 FPS
Count of elements: 750
Stream size: 79.1 KiB (0%)
Language: Thai
Default: No
Forced: No

Text #35
ID: 37
Format: UTF-8
Codec ID: S_TEXT/UTF8
Codec ID/Info: UTF-8 Plain Text
Duration: 47 min 24 s
Bit rate: 87 b/s
Frame rate: 0.256 FPS
Count of elements: 727
Stream size: 30.5 KiB (0%)
Language: Turkish
Default: No
Forced: No

Text #36
ID: 38
Format: UTF-8
Codec ID: S_TEXT/UTF8
Codec ID/Info: UTF-8 Plain Text
Duration: 47 min 24 s
Bit rate: 145 b/s
Frame rate: 0.258 FPS
Count of elements: 733
Stream size: 50.5 KiB (0%)
Language: Ukrainian
Default: No
Forced: No

Text #37
ID: 39
Format: UTF-8
Codec ID: S_TEXT/UTF8
Codec ID/Info: UTF-8 Plain Text
Duration: 47 min 21 s
Bit rate: 115 b/s
Frame rate: 0.260 FPS
Count of elements: 740
Stream size: 40.1 KiB (0%)
Language: Vietnamese
Default: No
Forced: No

Text #38
ID: 40
Format: UTF-8
Codec ID: S_TEXT/UTF8
Codec ID/Info: UTF-8 Plain Text
Duration: 47 min 24 s
Bit rate: 82 b/s
Frame rate: 0.270 FPS
Count of elements: 768
Stream size: 28.6 KiB (0%)
Title: Chinese (Simplified)
Language: Chinese (Simplified)
Default: No
Forced: No

Text #39
ID: 41
Format: UTF-8
Codec ID: S_TEXT/UTF8
Codec ID/Info: UTF-8 Plain Text
Duration: 47 min 24 s
Bit rate: 74 b/s
Frame rate: 0.285 FPS
Count of elements: 810
Stream size: 25.9 KiB (0%)
Title: Chinese (Traditional)
Language: Chinese (Traditional)
Default: No
Forced: No

Menu
00:00:00.000: en:Chapter 1
00:46:37.000: en:Credits

ssl  EZTV RSS EZTV Status | EZTV API | DMCA: [email protected]