eztv.tf | eztvstatus.org
Search title:  
TV Packs only
 

2 Days 1 Night S04E224 2019 1080p friDay WEB-DL H264 AAC-ADWeb EZTV

Episode Breakdown
2 Days 1 Night
2 Days 1 Night TV Show S04E224

Season: 4
Episode: 224
Air Date: 28 April, 2024
Download Links
     Torrent Download     Magnet Download
     Anonymous Download
Added 1 month ago by eztv (verified).
Tracker Statistics
Seeds: 1
Peers: 1
Stats generated @ 00:29 on 21st Jun 2024
Torrent Info
Torrent File: 2.Days.1.Night.S04E224.2019.1080p.friDay.WEB-DL.H264.AAC-ADWeb[EZTVx.to].mkv
Torrent Hash: D4476DED8E6AA67EAB96DBE9792EE4A8C2886BFA
Filesize: 4.91 GB
Released: 29th Apr 2024

File Format: MKV (Matroska)
Resolution: 1920x1080 px
Aspect Ratio: 16:9

2 Days 1 Night S04E224 - Boys In the Room

Summary:


2 Days 1 Night S04E224 2019 1080p friDay WEB-DL H264 AAC-ADWeb EZTV
2 Days 1 Night S4E224 Screenshot


General
Unique ID: 96697898191751483815085415777214467042 (0x48BF5678021B4CAE6449E5F239510BE2)
Complete name: 2.Days.1.Night.S04E224.2019.1080p.friDay.WEB-DL.H264.AAC-ADWeb.mkv
Format: Matroska
Format version: Version 4
File size: 4.91 GiB
Duration: 1 h 30 min
Overall bit rate: 7 737 kb/s
Frame rate: 29.970 FPS
Encoded date: 2024-04-29 03:16:24 UTC
Writing application: mkvmerge v83.0 ('Circle Of Friends') 64-bit
Writing library: libebml v1.4.5 + libmatroska v1.7.1

Video
ID: 1
Format: AVC
Format/Info: Advanced Video Codec
Format profile: [email protected]
Format settings: CABAC / 1 Ref Frames
Format settings, CABAC: Yes
Format settings, Reference frames: 1 frame
Format settings, GOP: M=1, N=60
Codec ID: V_MPEG4/ISO/AVC
Duration: 1 h 30 min
Bit rate mode: Constant
Bit rate: 7 609 kb/s
Nominal bit rate: 8 000 kb/s
Width: 1 920 pixels
Height: 1 080 pixels
Display aspect ratio: 16:9
Frame rate mode: Constant
Frame rate: 29.970 (30000/1001) FPS
Color space: YUV
Chroma subsampling: 4:2:0
Bit depth: 8 bits
Scan type: Progressive
Bits/(Pixel*Frame): 0.122
Stream size: 4.83 GiB (98%)
Language: English
Default: Yes
Forced: No

Audio
ID: 2
Format: AAC LC
Format/Info: Advanced Audio Codec Low Complexity
Codec ID: A_AAC-2
Duration: 1 h 30 min
Bit rate: 125 kb/s
Channel(s): 2 channels
Channel layout: L R
Sampling rate: 48.0 kHz
Frame rate: 46.875 FPS (1024 SPF)
Compression mode: Lossy
Stream size: 81.5 MiB (2%)
Title: T F
Language: Korean
Default: Yes
Forced: No

Text #1
ID: 3
Format: UTF-8
Codec ID: S_TEXT/UTF8
Codec ID/Info: UTF-8 Plain Text
Duration: 1 h 30 min
Bit rate: 62 b/s
Frame rate: 0.313 FPS
Count of elements: 1708
Stream size: 41.8 KiB (0%)
Title: t S+ S
Language: Chinese
Default: No
Forced: No

Text #2
ID: 4
Format: UTF-8
Codec ID: S_TEXT/UTF8
Codec ID/Info: UTF-8 Plain Text
Duration: 1 h 30 min
Bit rate: 62 b/s
Frame rate: 0.313 FPS
Count of elements: 1708
Stream size: 41.8 KiB (0%)
Title: t S+ S
Language: Chinese
Default: No
Forced: No
ssl  EZTV RSS EZTV Status | EZTV API | DMCA: [email protected]