eztv.tf | eztvstatus.org
Search title:  
TV Packs only
 

Justica S02E03 1080p WEB-DL AAC2 0 H 264-NTb EZTV

Episode Breakdown
Above Justice
Above Justice TV Show S02E03

Season: 2
Episode: 3
Download Links
     Torrent Download     Magnet Download
     Anonymous Download
Added 1 month ago by eztv (verified).
Tracker Statistics
Seeds: 0
Peers: 0
Stats generated @ 20:09 on 12th Jun 2024
Torrent Info
Torrent File: Justica.S02E03.1080p.WEB-DL.AAC2.0.H.264-NTb[EZTVx.to].mkv
Torrent Hash: 74E528FC20458BD164DFD1B042FD9A98338F5318
Filesize: 1.68 GB
Released: 25th Apr 2024

File Format: MKV (Matroska)
Resolution: 1920x1080 px
Aspect Ratio: 16:9

Episode Description


Justica S02E03 1080p WEB-DL AAC2 0 H 264-NTb EZTV
Above Justice S2E3 Screenshot


General
Unique ID: 155876845729064374761138149269292931210 (0x7544C9D9FF4943E83860551D4833588A)
Complete name: Justica.S02E03.1080p.WEB-DL.AAC2.0.H.264-NTb.mkv
Format: Matroska
Format version: Version 4
File size: 1.68 GiB
Duration: 50 min 27 s
Overall bit rate: 4 765 kb/s
Frame rate: 23.976 FPS
Encoded date: 2024-04-25 02:49:38 UTC
Writing application: mkvmerge v83.0 ('Circle Of Friends') 64-bit
Writing library: libebml v1.4.5 + libmatroska v1.7.1

Video
ID: 1
Format: AVC
Format/Info: Advanced Video Codec
Format profile: Main@L4
Format settings: CABAC / 4 Ref Frames
Format settings, CABAC: Yes
Format settings, Reference frames: 4 frames
Codec ID: V_MPEG4/ISO/AVC
Duration: 50 min 27 s
Bit rate: 4 634 kb/s
Width: 1 920 pixels
Height: 1 080 pixels
Display aspect ratio: 16:9
Frame rate mode: Constant
Frame rate: 23.976 (24000/1001) FPS
Color space: YUV
Chroma subsampling: 4:2:0
Bit depth: 8 bits
Scan type: Progressive
Bits/(Pixel*Frame): 0.093
Stream size: 1.63 GiB (97%)
Default: Yes
Forced: No

Audio
ID: 2
Format: AAC LC
Format/Info: Advanced Audio Codec Low Complexity
Codec ID: A_AAC-2
Duration: 50 min 27 s
Bit rate: 128 kb/s
Channel(s): 2 channels
Channel layout: L R
Sampling rate: 44.1 kHz
Frame rate: 43.066 FPS (1024 SPF)
Compression mode: Lossy
Stream size: 46.2 MiB (3%)
Language: Portuguese
Default: Yes
Forced: No

Text
ID: 3
Format: UTF-8
Codec ID: S_TEXT/UTF8
Codec ID/Info: UTF-8 Plain Text
Duration: 50 min 27 s
Bit rate: 81 b/s
Frame rate: 0.297 FPS
Count of elements: 900
Stream size: 30.2 KiB (0%)
Language: Portuguese
Default: Yes
Forced: No
ssl  EZTV RSS EZTV Status | EZTV API | DMCA: [email protected]