eztv.tf | eztvstatus.org
Search title:  
TV Packs only
 

Swift Street S01E06 720p Webrip x264-TheSpectre EZTV

Episode Breakdown
Swift Street
Swift Street TV Show S01E06

Season: 1
Episode: 6
Air Date: 15 May, 2024
Download Links
     Torrent Download     Magnet Download
     Anonymous Download
Added 1 month ago by eztv (verified).
Tracker Statistics
Seeds: 1
Peers: 0
Stats generated @ 00:58 on 21st Jun 2024
Torrent Info
Torrent File: Swift Street S01E06 720p Webrip x264-TheSpectre[EZTVx.to].mkv
Torrent Hash: 9CD8C144424B89BA8556BD7BC3A7760613873274
Filesize: 235 MB
Released: 25th Apr 2024

File Format: MKV (Matroska)
Resolution: 1280x720 px
Aspect Ratio: 16:9

Swift Street S01E06 - Falcon

Summary:

The partnership of Robert and Elsie is put to the test when they place their bets on a risky car insurance scam.



Swift Street S01E06 720p Webrip x264-TheSpectre EZTV
Swift Street S1E6 Screenshot


General
Unique ID: 297331965937901984933385065920306115157 (0xDFB00DBCD08DB94325038780E6687255)
Complete name: Swift Street S01E06 720p Webrip x264-TheSpectre.mkv
Format: Matroska
Format version: Version 4
File size: 235 MiB
Duration: 24 min 51 s
Overall bit rate: 1 322 kb/s
Frame rate: 25.000 FPS
Movie name: S01E06 Falcon
Encoded date: 2024-04-24 04:47:44 UTC
Writing application: mkvmerge v83.0 ('Circle Of Friends') 64-bit
Writing library: libebml v1.4.5 + libmatroska v1.7.1 / Lavf60.10.100

Video
ID: 1
Format: AVC
Format/Info: Advanced Video Codec
Format profile: [email protected]
Format settings: CABAC / 2 Ref Frames
Format settings, CABAC: Yes
Format settings, Reference frames: 2 frames
Format settings, GOP: M=4, N=50
Codec ID: V_MPEG4/ISO/AVC
Duration: 24 min 51 s
Bit rate: 1 194 kb/s
Width: 1 280 pixels
Height: 720 pixels
Display aspect ratio: 16:9
Frame rate mode: Constant
Frame rate: 25.000 FPS
Color space: YUV
Chroma subsampling: 4:2:0
Bit depth: 8 bits
Scan type: Progressive
Bits/(Pixel*Frame): 0.052
Stream size: 212 MiB (90%)
Writing library: x264 core 164
Encoding settings: cabac=1 / ref=2 / deblock=1:0:0 / analyse=0x1:0x111 / me=hex / subme=8 / psy=0 / mixed_ref=1 / me_range=16 / chroma_me=1 / trellis=2 / 8x8dct=0 / cqm=0 / deadzone=21,11 / fast_pskip=1 / chroma_qp_offset=0 / threads=22 / lookahead_threads=3 / sliced_threads=0 / nr=0 / decimate=1 / interlaced=0 / bluray_compat=0 / constrained_intra=0 / bframes=3 / b_pyramid=0 / b_adapt=0 / b_bias=0 / direct=3 / weightb=1 / open_gop=0 / weightp=2 / keyint=50 / keyint_min=26 / scenecut=0 / intra_refresh=0 / rc_lookahead=50 / rc=crf / mbtree=1 / crf=21.0 / qcomp=0.60 / qpmin=0 / qpmax=69 / qpstep=4 / vbv_maxrate=2500 / vbv_bufsize=1250 / crf_max=0.0 / nal_hrd=none / filler=0 / ip_ratio=1.40 / aq=2:1.00
Default: Yes
Forced: No

Audio
ID: 2
Format: AAC LC
Format/Info: Advanced Audio Codec Low Complexity
Codec ID: A_AAC-2
Duration: 24 min 51 s
Bit rate: 125 kb/s
Channel(s): 2 channels
Channel layout: L R
Sampling rate: 48.0 kHz
Frame rate: 46.875 FPS (1024 SPF)
Compression mode: Lossy
Delay relative to video: 21 ms
Stream size: 22.3 MiB (9%)
Language: English
Default: Yes
Forced: No

Text
ID: 3
Format: UTF-8
Codec ID: S_TEXT/UTF8
Codec ID/Info: UTF-8 Plain Text
Duration: 24 min 37 s
Bit rate: 45 b/s
Frame rate: 0.191 FPS
Count of elements: 282
Stream size: 8.18 KiB (0%)
Language: English
Default: No
Forced: No
ssl  EZTV RSS EZTV Status | EZTV API | DMCA: [email protected]