eztv.tf | eztvstatus.org
Search title:  
TV Packs only
 

The Synanon Fix S01E02 A War on Convention 1080p AMZN WEB-DL DDP5 1 H 264-FLUX EZTV

Episode Breakdown
The Synanon Fix
The Synanon Fix TV Show S01E02

Season: 1
Episode: 2
Air Date: 8 April, 2024
Download Links
     Torrent Download     Magnet Download
     Anonymous Download
Added 2 months ago by eztv (verified).
Tracker Statistics
Seeds: 2
Peers: 2
Stats generated @ 01:57 on 24th Jul 2024
Torrent Info
Torrent File: The Synanon Fix S01E02 A War on Convention 1080p AMZN WEB-DL DDP5 1 H 264-FLUX[EZTVx.to].mkv
Torrent Hash: A9F01EB4ADA9061F70E593B6403AC245B5C1975A
Filesize: 3.93 GB
Released: 24th Apr 2024

File Format: MKV (Matroska)
Resolution: 1920x1080 px
Aspect Ratio: 16:9
Alternate Releases S L
The Synanon Fix S01E02 1080p WEB h264-EDITH 0 0
The Synanon Fix S01E02 XviD-AFG 3 2
The Synanon Fix S01E02 A war on convention 720p HMAX WEB-DL DD5 1 H 264-playWEB 1 1
The Synanon Fix S01E02 1080p HEVC x265-MeGusta 2 2

The Synanon Fix S01E02 - A war on convention

Summary:

By 1970, Synanon has become a version of model society. The self-sustaining, member-run, communal living enclave boasts its own farm, a school, and multiple businesses. Chuck establishes "The Synanon Religion" and maintains their tax-exempt status. As Chuck becomes increasingly authoritative and dictatorial, he implements more extreme edicts, including mandatory head-shaving and living conditions in which the children are kept apart from their parents. Many members find themselves weighing the benefits and costs of the choices they're forced to make.



The Synanon Fix S01E02 A War on Convention 1080p AMZN WEB-DL DDP5 1 H 264-FLUX EZTV
The Synanon Fix S1E2 Screenshot


General
Unique ID: 307894078790973241727298362429424637460 (0xE7A23E1B50D769A49D20381FCAC99614)
Complete name: The Synanon Fix S01E02 A War on Convention 1080p AMZN WEB-DL DDP5 1 H 264-FLUX.mkv
Format: Matroska
Format version: Version 4
File size: 3.93 GiB
Duration: 59 min 58 s
Overall bit rate: 9 372 kb/s
Frame rate: 23.976 FPS
Writing application: mkvmerge v81.0 ('Milliontown') 64-bit
Writing library: libebml v1.4.4 + libmatroska v1.7.1

Video
ID: 1
Format: AVC
Format/Info: Advanced Video Codec
Format profile: High@L4
Format settings: CABAC / 4 Ref Frames
Format settings, CABAC: Yes
Format settings, Reference frames: 4 frames
Codec ID: V_MPEG4/ISO/AVC
Duration: 59 min 58 s
Bit rate mode: Constant
Bit rate: 8 729 kb/s
Nominal bit rate: 10 000 kb/s
Width: 1 920 pixels
Height: 1 080 pixels
Display aspect ratio: 16:9
Frame rate mode: Constant
Frame rate: 23.976 (24000/1001) FPS
Color space: YUV
Chroma subsampling: 4:2:0
Bit depth: 8 bits
Scan type: Progressive
Bits/(Pixel*Frame): 0.176
Stream size: 3.66 GiB (93%)
Language: English (US)
Default: Yes
Forced: No
Color range: Limited
Color primaries: BT.709
Transfer characteristics: BT.709
Matrix coefficients: BT.709

Audio
ID: 2
Format: E-AC-3
Format/Info: Enhanced AC-3
Commercial name: Dolby Digital Plus
Codec ID: A_EAC3
Duration: 59 min 58 s
Bit rate mode: Constant
Bit rate: 640 kb/s
Channel(s): 6 channels
Channel layout: L R C LFE Ls Rs
Sampling rate: 48.0 kHz
Frame rate: 31.250 FPS (1536 SPF)
Compression mode: Lossy
Stream size: 275 MiB (7%)
Language: English (US)
Service kind: Complete Main
Default: Yes
Forced: No

Text #1
ID: 3
Format: UTF-8
Codec ID: S_TEXT/UTF8
Codec ID/Info: UTF-8 Plain Text
Duration: 58 min 29 s
Bit rate: 94 b/s
Frame rate: 0.288 FPS
Count of elements: 1011
Stream size: 40.5 KiB (0%)
Language: English (US)
Default: No
Forced: No

Text #2
ID: 4
Format: UTF-8
Codec ID: S_TEXT/UTF8
Codec ID/Info: UTF-8 Plain Text
Duration: 59 min 39 s
Bit rate: 102 b/s
Frame rate: 0.329 FPS
Count of elements: 1177
Stream size: 44.7 KiB (0%)
Title: SDH
Language: English (US)
Default: No
Forced: No

Text #3
ID: 5
Format: UTF-8
Codec ID: S_TEXT/UTF8
Codec ID/Info: UTF-8 Plain Text
Duration: 58 min 29 s
Bit rate: 93 b/s
Frame rate: 0.305 FPS
Count of elements: 1071
Stream size: 40.1 KiB (0%)
Title: Latin American
Language: Spanish (Latin America)
Default: No
Forced: No

Menu
00:00:01.000: en:Intro
00:00:13.000: en:Scene 1
00:58:54.000: en:End Credits

ssl  EZTV RSS EZTV Status | EZTV API | DMCA: [email protected]