eztv.tf | eztvstatus.org
Search title:  
TV Packs only
 

RoOT S01E02 Fancy Merch 1080p CR WEB-DL AAC2 0 H 264-playWEB EZTV

Episode Breakdown
RoOT
RoOT TV Show S01E02

Season: 1
Episode: 2
Air Date: 9 April, 2024
Download Links
     Torrent Download     Magnet Download
     Anonymous Download
Added 1 month ago by eztv (verified).
Tracker Statistics
Seeds: 0
Peers: 1
Stats generated @ 21:14 on 12th Jun 2024
Torrent Info
Torrent File: RoOT S01E02 Fancy Merch 1080p CR WEB-DL AAC2 0 H 264-playWEB[EZTVx.to].mkv
Torrent Hash: 8269D9C0F159B2F522597E96793B24FD29B26350
Filesize: 1.32 GB
Released: 24th Apr 2024

File Format: MKV (Matroska)
Resolution: 1920x1080 px
Aspect Ratio: 16:9

RoOT S01E02 - Fancy Merch

Summary:


RoOT S01E02 Fancy Merch 1080p CR WEB-DL AAC2 0 H 264-playWEB EZTV
RoOT S1E2 Screenshot


General
Unique ID: 53581755872520782376445896508251444164 (0x284F78870E0A875348E796D0F48A13C4)
Complete name: RoOT S01E02 Fancy Merch 1080p CR WEB-DL AAC2 0 H 264-playWEB.mkv
Format: Matroska
Format version: Version 4
File size: 1.32 GiB
Duration: 23 min 15 s
Overall bit rate: 8 096 kb/s
Frame rate: 23.976 FPS
Writing application: mkvmerge v83.0 ('Circle Of Friends') 64-bit
Writing library: libebml v1.4.5 + libmatroska v1.7.1

Video
ID: 1
Format: AVC
Format/Info: Advanced Video Codec
Format profile: High@L4
Format settings: CABAC / 4 Ref Frames
Format settings, CABAC: Yes
Format settings, Reference frames: 4 frames
Codec ID: V_MPEG4/ISO/AVC
Duration: 23 min 15 s
Bit rate: 8 000 kb/s
Width: 1 920 pixels
Height: 1 080 pixels
Display aspect ratio: 16:9
Frame rate mode: Constant
Frame rate: 23.976 (24000/1001) FPS
Color space: YUV
Chroma subsampling: 4:2:0
Bit depth: 8 bits
Scan type: Progressive
Bits/(Pixel*Frame): 0.161
Stream size: 1.29 GiB (98%)
Writing library: x264 core 164
Encoding settings: cabac=1 / ref=4 / deblock=1:1:1 / analyse=0x3:0x113 / me=hex / subme=8 / psy=1 / psy_rd=0.40:0.00 / mixed_ref=1 / me_range=16 / chroma_me=1 / trellis=2 / 8x8dct=1 / cqm=0 / deadzone=21,11 / fast_pskip=1 / chroma_qp_offset=-2 / threads=12 / lookahead_threads=2 / sliced_threads=0 / nr=0 / decimate=1 / interlaced=0 / bluray_compat=0 / constrained_intra=0 / bframes=0 / weightp=2 / keyint=96 / keyint_min=48 / scenecut=40 / intra_refresh=0 / rc_lookahead=48 / rc=2pass / mbtree=1 / bitrate=8000 / ratetol=1.0 / qcomp=0.60 / qpmin=0 / qpmax=69 / qpstep=4 / cplxblur=20.0 / qblur=0.5 / vbv_maxrate=12000 / vbv_bufsize=18000 / nal_hrd=none / filler=0 / ip_ratio=1.40 / aq=1:0.60
Language: Japanese (JP)
Default: Yes
Forced: No
Color range: Limited
Color primaries: BT.709
Transfer characteristics: BT.709
Matrix coefficients: BT.709

Audio
ID: 2
Format: AAC LC
Format/Info: Advanced Audio Codec Low Complexity
Codec ID: A_AAC-2
Duration: 23 min 15 s
Bit rate: 128 kb/s
Channel(s): 2 channels
Channel layout: L R
Sampling rate: 44.1 kHz
Frame rate: 43.066 FPS (1024 SPF)
Compression mode: Lossy
Stream size: 21.3 MiB (2%)
Title: Japan
Language: Japanese (JP)
Default: Yes
Forced: No

Text #1
ID: 3
Format: UTF-8
Codec ID: S_TEXT/UTF8
Codec ID/Info: UTF-8 Plain Text
Duration: 22 min 54 s
Bit rate: 145 b/s
Frame rate: 0.315 FPS
Count of elements: 433
Stream size: 24.4 KiB (0%)
Title: Saudi Arabia
Language: Arabic (SA)
Default: No
Forced: No

Text #2
ID: 4
Format: UTF-8
Codec ID: S_TEXT/UTF8
Codec ID/Info: UTF-8 Plain Text
Duration: 22 min 53 s
Bit rate: 90 b/s
Frame rate: 0.338 FPS
Count of elements: 464
Stream size: 15.2 KiB (0%)
Language: German (DE)
Default: No
Forced: No

Text #3
ID: 5
Format: UTF-8
Codec ID: S_TEXT/UTF8
Codec ID/Info: UTF-8 Plain Text
Duration: 22 min 54 s
Bit rate: 91 b/s
Frame rate: 0.320 FPS
Count of elements: 440
Stream size: 15.4 KiB (0%)
Title: United States
Language: English (US)
Default: No
Forced: No

Text #4
ID: 6
Format: UTF-8
Codec ID: S_TEXT/UTF8
Codec ID/Info: UTF-8 Plain Text
Duration: 22 min 54 s
Bit rate: 84 b/s
Frame rate: 0.300 FPS
Count of elements: 413
Stream size: 14.2 KiB (0%)
Title: Latin America
Language: Spanish (Latin America)
Default: No
Forced: No

Text #5
ID: 7
Format: UTF-8
Codec ID: S_TEXT/UTF8
Codec ID/Info: UTF-8 Plain Text
Duration: 22 min 54 s
Bit rate: 85 b/s
Frame rate: 0.300 FPS
Count of elements: 413
Stream size: 14.3 KiB (0%)
Language: Spanish (ES)
Default: No
Forced: No

Text #6
ID: 8
Format: UTF-8
Codec ID: S_TEXT/UTF8
Codec ID/Info: UTF-8 Plain Text
Duration: 22 min 53 s
Bit rate: 93 b/s
Frame rate: 0.303 FPS
Count of elements: 416
Stream size: 15.7 KiB (0%)
Language: French (FR)
Default: No
Forced: No

Text #7
ID: 9
Format: UTF-8
Codec ID: S_TEXT/UTF8
Codec ID/Info: UTF-8 Plain Text
Duration: 22 min 54 s
Bit rate: 98 b/s
Frame rate: 0.323 FPS
Count of elements: 444
Stream size: 16.5 KiB (0%)
Language: Italian (IT)
Default: No
Forced: No

Text #8
ID: 10
Format: UTF-8
Codec ID: S_TEXT/UTF8
Codec ID/Info: UTF-8 Plain Text
Duration: 22 min 54 s
Bit rate: 93 b/s
Frame rate: 0.320 FPS
Count of elements: 440
Stream size: 15.6 KiB (0%)
Title: Brazil
Language: Portuguese (BR)
Default: No
Forced: No

Text #9
ID: 11
Format: UTF-8
Codec ID: S_TEXT/UTF8
Codec ID/Info: UTF-8 Plain Text
Duration: 22 min 53 s
Bit rate: 148 b/s
Frame rate: 0.361 FPS
Count of elements: 496
Stream size: 24.9 KiB (0%)
Language: Russian (RU)
Default: No
Forced: No

ssl  EZTV RSS EZTV Status | EZTV API | DMCA: [email protected]