eztv.tf | eztvstatus.org
Search title:  
TV Packs only
 

2 Days 1 Night S04E223 2019 1080p friDay WEB-DL H264 AAC-ADWeb EZTV

Episode Breakdown
2 Days 1 Night
2 Days 1 Night TV Show S04E223

Season: 4
Episode: 223
Air Date: 21 April, 2024
Download Links
     Torrent Download     Magnet Download
     Anonymous Download
Added 1 month ago by eztv (verified).
Tracker Statistics
Seeds: 0
Peers: 1
Stats generated @ 00:03 on 21st Jun 2024
Torrent Info
Torrent File: 2.Days.1.Night.S04E223.2019.1080p.friDay.WEB-DL.H264.AAC-ADWeb[EZTVx.to].mkv
Torrent Hash: EAE21B3D90C667F6E264C37EABACBFFCB6B66BF3
Filesize: 4.93 GB
Released: 22nd Apr 2024

File Format: MKV (Matroska)
Resolution: 1920x1080 px
Aspect Ratio: 16:9

2 Days 1 Night S04E223 - Three Kingdoms Unification Race

Summary:


2 Days 1 Night S04E223 2019 1080p friDay WEB-DL H264 AAC-ADWeb EZTV
2 Days 1 Night S4E223 Screenshot


General
Unique ID: 8588295218747592733691131542421486938 (0x6760BA572F5DF608B99C81D156DBD5A)
Complete name: 2.Days.1.Night.S04E223.2019.1080p.friDay.WEB-DL.H264.AAC-ADWeb.mkv
Format: Matroska
Format version: Version 4
File size: 4.93 GiB
Duration: 1 h 32 min
Overall bit rate: 7 636 kb/s
Frame rate: 29.970 FPS
Encoded date: 2024-04-22 02:37:15 UTC
Writing application: mkvmerge v83.0 ('Circle Of Friends') 64-bit
Writing library: libebml v1.4.5 + libmatroska v1.7.1

Video
ID: 1
Format: AVC
Format/Info: Advanced Video Codec
Format profile: [email protected]
Format settings: CABAC / 1 Ref Frames
Format settings, CABAC: Yes
Format settings, Reference frames: 1 frame
Format settings, GOP: M=1, N=60
Codec ID: V_MPEG4/ISO/AVC
Duration: 1 h 32 min
Bit rate mode: Constant
Bit rate: 7 507 kb/s
Nominal bit rate: 8 000 kb/s
Width: 1 920 pixels
Height: 1 080 pixels
Display aspect ratio: 16:9
Frame rate mode: Constant
Frame rate: 29.970 (30000/1001) FPS
Color space: YUV
Chroma subsampling: 4:2:0
Bit depth: 8 bits
Scan type: Progressive
Bits/(Pixel*Frame): 0.121
Stream size: 4.85 GiB (98%)
Language: English
Default: Yes
Forced: No

Audio
ID: 2
Format: AAC LC
Format/Info: Advanced Audio Codec Low Complexity
Codec ID: A_AAC-2
Duration: 1 h 32 min
Bit rate: 125 kb/s
Channel(s): 2 channels
Channel layout: L R
Sampling rate: 48.0 kHz
Frame rate: 46.875 FPS (1024 SPF)
Compression mode: Lossy
Stream size: 83.0 MiB (2%)
Title: T F
Language: Korean
Default: Yes
Forced: No

Text #1
ID: 3
Format: UTF-8
Codec ID: S_TEXT/UTF8
Codec ID/Info: UTF-8 Plain Text
Duration: 1 h 32 min
Bit rate: 66 b/s
Frame rate: 0.321 FPS
Count of elements: 1780
Stream size: 45.0 KiB (0%)
Title: t S+ S
Language: Chinese
Default: No
Forced: No

Text #2
ID: 4
Format: UTF-8
Codec ID: S_TEXT/UTF8
Codec ID/Info: UTF-8 Plain Text
Duration: 1 h 32 min
Bit rate: 66 b/s
Frame rate: 0.321 FPS
Count of elements: 1780
Stream size: 45.0 KiB (0%)
Title: t S+ S
Language: Chinese
Default: No
Forced: No
ssl  EZTV RSS EZTV Status | EZTV API | DMCA: [email protected]