eztv.tf | eztvstatus.org
Search title:  
TV Packs only
 

The Valley 2024 S01E05 The D Word 1080p AMZN WEB-DL DDP2 0 H 264-NTb EZTV

Episode Breakdown
The Valley
The Valley TV Show S01E05

Season: 1
Episode: 5
Air Date: 16 April, 2024
Download Links
     Torrent Download     Magnet Download
     Anonymous Download
Added 1 month ago by eztv (verified).
Tracker Statistics
Seeds: 0
Peers: 1
Stats generated @ 07:03 on 25th May 2024
Torrent Info
Torrent File: The.Valley.2024.S01E05.The.D.Word.1080p.AMZN.WEB-DL.DDP2.0.H.264-NTb[EZTVx.to].mkv
Torrent Hash: 9E420BFE717E63A8F789461527C2006A18007D21
Filesize: 2.72 GB
Released: 17th Apr 2024

File Format: MKV (Matroska)
Resolution: 1920x1080 px
Aspect Ratio: 16:9
Alternate Releases S L
The Valley 2024 S01E05 The D Word 720p AMZN WEB-DL DDP2 0 H 264-NTb 22 7
The Valley 2024 S01E05 1080p WEB h264-EDITH 7 1
The Valley 2024 S01E05 XviD-AFG 5 0
The Valley 2024 S01E05 1080p HEVC x265-MeGusta 13 2

The Valley S01E05 - The 'D' Word

Summary:

The ladies retreat to Malibu for a girls' night while leaving the boys to daddy daycare. Michelle opens up to Brittany that she isn't sure she wants to stay with Jesse. Brittany shares that she isn't getting any intimacy from Jax. The ladies are concerned for Nia as she struggles with postpartum depression. The old Jax returns as he stirs up some interesting rumors about one friend in the group.



The Valley 2024 S01E05 The D Word 1080p AMZN WEB-DL DDP2 0 H 264-NTb EZTV
The Valley S1E5 Screenshot


General
Unique ID: 159880031830436584992692488377465876958 (0x7847C62A2F3218CC0372F0EB4A70B1DE)
Complete name: The.Valley.2024.S01E05.The.D.Word.1080p.AMZN.WEB-DL.DDP2.0.H.264-NTb.mkv
Format: Matroska
Format version: Version 4
File size: 2.72 GiB
Duration: 42 min 35 s
Overall bit rate: 9 154 kb/s
Frame rate: 23.976 FPS
Writing application: mkvmerge v81.0 ('Milliontown') 64-bit
Writing library: libebml v1.4.4 + libmatroska v1.7.1

Video
ID: 1
Format: AVC
Format/Info: Advanced Video Codec
Format profile: High@L4
Format settings: CABAC / 4 Ref Frames
Format settings, CABAC: Yes
Format settings, Reference frames: 4 frames
Codec ID: V_MPEG4/ISO/AVC
Duration: 42 min 35 s
Bit rate mode: Constant
Bit rate: 8 927 kb/s
Nominal bit rate: 10 000 kb/s
Width: 1 920 pixels
Height: 1 080 pixels
Display aspect ratio: 16:9
Frame rate mode: Constant
Frame rate: 23.976 (24000/1001) FPS
Color space: YUV
Chroma subsampling: 4:2:0
Bit depth: 8 bits
Scan type: Progressive
Bits/(Pixel*Frame): 0.180
Stream size: 2.66 GiB (98%)
Default: Yes
Forced: No
Color range: Limited
Color primaries: BT.709
Transfer characteristics: BT.709
Matrix coefficients: BT.709

Audio
ID: 2
Format: E-AC-3
Format/Info: Enhanced AC-3
Commercial name: Dolby Digital Plus
Codec ID: A_EAC3
Duration: 42 min 35 s
Bit rate mode: Constant
Bit rate: 224 kb/s
Channel(s): 2 channels
Channel layout: L R
Sampling rate: 48.0 kHz
Frame rate: 31.250 FPS (1536 SPF)
Compression mode: Lossy
Stream size: 68.2 MiB (2%)
Language: English (US)
Service kind: Complete Main
Default: Yes
Forced: No

Text #1
ID: 3
Format: UTF-8
Codec ID: S_TEXT/UTF8
Codec ID/Info: UTF-8 Plain Text
Duration: 42 min 32 s
Bit rate: 118 b/s
Frame rate: 0.462 FPS
Count of elements: 1179
Stream size: 36.8 KiB (0%)
Language: English (US)
Default: No
Forced: No

Text #2
ID: 4
Format: UTF-8
Codec ID: S_TEXT/UTF8
Codec ID/Info: UTF-8 Plain Text
Duration: 42 min 32 s
Bit rate: 121 b/s
Frame rate: 0.487 FPS
Count of elements: 1242
Stream size: 37.7 KiB (0%)
Title: SDH
Language: English (US)
Default: No
Forced: No
ssl  EZTV RSS EZTV Status | EZTV API | DMCA: [email protected]