eztv.tf | eztvstatus.org
Search title:  
TV Packs only
 

Hope Street S03E10 1080p AMZN WEB-DL DDP2 0 H 264-MADSKY EZTV

Episode Breakdown
HOPE ON THE STREET
HOPE ON THE STREET TV Show S03E10

Season: 3
Episode: 10
Download Links
     Torrent Download     Magnet Download
     Anonymous Download
Added 2 months ago by eztv (verified).
Tracker Statistics
Seeds: 2
Peers: 2
Stats generated @ 00:33 on 21st Jun 2024
Torrent Info
Torrent File: Hope Street S03E10 1080p AMZN WEB-DL DDP2 0 H 264-MADSKY[EZTVx.to].mkv
Torrent Hash: 9C1B69894C2756CDE5104C839DA0D66F06564F66
Filesize: 2.70 GB
Released: 9th Apr 2024

File Format: MKV (Matroska)
Resolution: 1920x1080 px
Aspect Ratio: 16:9

Episode Description
Hope Street S03E10 1080p AMZN WEB-DL DDP2 0 H 264-MADSKY EZTV
HOPE ON THE STREET S3E10 Screenshot


General
Unique ID: 72689604916911683612043281311327219142 (0x36AF82388F00942BE3635B2BC2026DC6)
Complete name: Hope Street S03E10 1080p AMZN WEB-DL DDP2 0 H 264-MADSKY.mkv
Format: Matroska
Format version: Version 4
File size: 2.70 GiB
Duration: 43 min 41 s
Overall bit rate: 8 846 kb/s
Frame rate: 25.000 FPS
Writing application: mkvmerge v81.0 ('Milliontown') 64-bit
Writing library: libebml v1.4.4 + libmatroska v1.7.1

Video
ID: 1
Format: AVC
Format/Info: Advanced Video Codec
Format profile: High@L4
Format settings: CABAC / 4 Ref Frames
Format settings, CABAC: Yes
Format settings, Reference frames: 4 frames
Codec ID: V_MPEG4/ISO/AVC
Duration: 43 min 41 s
Bit rate mode: Constant
Bit rate: 8 620 kb/s
Nominal bit rate: 10 000 kb/s
Width: 1 920 pixels
Height: 1 080 pixels
Display aspect ratio: 16:9
Frame rate mode: Constant
Frame rate: 25.000 FPS
Color space: YUV
Chroma subsampling: 4:2:0
Bit depth: 8 bits
Scan type: Progressive
Bits/(Pixel*Frame): 0.166
Stream size: 2.63 GiB (97%)
Default: Yes
Forced: No
Color range: Limited
Color primaries: BT.709
Transfer characteristics: BT.709
Matrix coefficients: BT.709

Audio
ID: 2
Format: E-AC-3
Format/Info: Enhanced AC-3
Commercial name: Dolby Digital Plus
Codec ID: A_EAC3
Duration: 43 min 41 s
Bit rate mode: Constant
Bit rate: 224 kb/s
Channel(s): 2 channels
Channel layout: L R
Sampling rate: 48.0 kHz
Frame rate: 31.250 FPS (1536 SPF)
Compression mode: Lossy
Stream size: 70.0 MiB (3%)
Language: English
Service kind: Complete Main
Default: Yes
Forced: No

Text #1
ID: 3
Format: UTF-8
Codec ID: S_TEXT/UTF8
Codec ID/Info: UTF-8 Plain Text
Duration: 42 min 9 s
Bit rate: 69 b/s
Frame rate: 0.258 FPS
Count of elements: 653
Stream size: 21.3 KiB (0%)
Language: English (GB)
Default: No
Forced: No

Text #2
ID: 4
Format: UTF-8
Codec ID: S_TEXT/UTF8
Codec ID/Info: UTF-8 Plain Text
Duration: 42 min 13 s
Bit rate: 71 b/s
Frame rate: 0.270 FPS
Count of elements: 683
Stream size: 22.0 KiB (0%)
Title: SDH
Language: English (GB)
Default: No
Forced: No

ssl  EZTV RSS EZTV Status | EZTV API | DMCA: [email protected]