eztv.tf | eztvstatus.org
Search title:  
TV Packs only
 

The Synanon Fix S01E02 A war on convention 720p HMAX WEB-DL DD5 1 H 264-playWEB EZTV

Episode Breakdown
The Synanon Fix
The Synanon Fix TV Show S01E02

Season: 1
Episode: 2
Air Date: 8 April, 2024
Download Links
     Torrent Download     Magnet Download
     Anonymous Download
Added 2 months ago by eztv (verified).
Tracker Statistics
Seeds: 2
Peers: 2
Stats generated @ 19:57 on 12th Jun 2024
Torrent Info
Torrent File: The Synanon Fix S01E02 A war on convention 720p HMAX WEB-DL DD5 1 H 264-playWEB[EZTVx.to].mkv
Torrent Hash: E08477F0D4CFFB8C0F86DE31A149EEFA442CDAAF
Filesize: 1.52 GB
Released: 9th Apr 2024

File Format: MKV (Matroska)
Resolution: 1280x720 px
Aspect Ratio: 16:9
Alternate Releases S L
The Synanon Fix S01E02 1080p WEB h264-EDITH 9 2
The Synanon Fix S01E02 XviD-AFG 2 2
The Synanon Fix S01E02 1080p HEVC x265-MeGusta 1 1
The Synanon Fix S01E02 A War on Convention 1080p AMZN WEB-DL DDP5 1 H 264-FLUX 1 0

The Synanon Fix S01E02 - A war on convention

Summary:

By 1970, Synanon has become a version of model society. The self-sustaining, member-run, communal living enclave boasts its own farm, a school, and multiple businesses. Chuck establishes "The Synanon Religion" and maintains their tax-exempt status. As Chuck becomes increasingly authoritative and dictatorial, he implements more extreme edicts, including mandatory head-shaving and living conditions in which the children are kept apart from their parents. Many members find themselves weighing the benefits and costs of the choices they're forced to make.



The Synanon Fix S01E02 A war on convention 720p HMAX WEB-DL DD5 1 H 264-playWEB EZTV
The Synanon Fix S1E2 Screenshot


General
Unique ID: 254531352372116604878553206026232485332 (0xBF7CF490A15DF26ADBC3FAD897A955D4)
Complete name: The Synanon Fix S01E02 A war on convention 720p HMAX WEB-DL DD5 1 H 264-playWEB.mkv
Format: Matroska
Format version: Version 4
File size: 1.52 GiB
Duration: 57 min 33 s
Overall bit rate mode: Variable
Overall bit rate: 3 773 kb/s
Frame rate: 25.000 FPS
Writing application: mkvmerge v83.0 ('Circle Of Friends') 64-bit
Writing library: libebml v1.4.5 + libmatroska v1.7.1

Video
ID: 1
Format: AVC
Format/Info: Advanced Video Codec
Format profile: [email protected]
Format settings: CABAC / 4 Ref Frames
Format settings, CABAC: Yes
Format settings, Reference frames: 4 frames
Codec ID: V_MPEG4/ISO/AVC
Duration: 57 min 33 s
Bit rate mode: Variable
Bit rate: 3 400 kb/s
Maximum bit rate: 5 100 kb/s
Width: 1 280 pixels
Height: 720 pixels
Display aspect ratio: 16:9
Frame rate mode: Constant
Frame rate: 25.000 FPS
Color space: YUV
Chroma subsampling: 4:2:0
Bit depth: 8 bits
Scan type: Progressive
Bits/(Pixel*Frame): 0.148
Stream size: 1.36 GiB (90%)
Writing library: x264 core 157 r2965 861cec4
Encoding settings: cabac=1 / ref=4 / deblock=1:0:0 / analyse=0x1:0x111 / me=hex / subme=7 / psy=1 / psy_rd=1.00:0.00 / mixed_ref=1 / me_range=16 / chroma_me=1 / trellis=1 / 8x8dct=0 / cqm=0 / deadzone=21,11 / fast_pskip=1 / chroma_qp_offset=-2 / threads=22 / lookahead_threads=3 / sliced_threads=0 / nr=0 / decimate=1 / interlaced=0 / bluray_compat=0 / constrained_intra=0 / bframes=3 / b_pyramid=2 / b_adapt=1 / b_bias=0 / direct=1 / weightb=1 / open_gop=0 / weightp=2 / keyint=100 / keyint_min=100 / scenecut=40 / intra_refresh=0 / rc_lookahead=40 / rc=2pass / mbtree=1 / bitrate=3400 / ratetol=1.0 / qcomp=0.60 / qpmin=0 / qpmax=69 / qpstep=4 / cplxblur=20.0 / qblur=0.5 / vbv_maxrate=5100 / vbv_bufsize=2550 / nal_hrd=vbr / filler=0 / ip_ratio=1.40 / aq=1:1.00
Default: Yes
Forced: No
Color range: Limited
Color primaries: BT.709
Transfer characteristics: BT.709
Matrix coefficients: BT.709

Audio
ID: 2
Format: AC-3
Format/Info: Audio Coding 3
Commercial name: Dolby Digital
Codec ID: A_AC3
Duration: 57 min 32 s
Bit rate mode: Constant
Bit rate: 384 kb/s
Channel(s): 6 channels
Channel layout: L R C LFE Ls Rs
Sampling rate: 48.0 kHz
Frame rate: 31.250 FPS (1536 SPF)
Compression mode: Lossy
Stream size: 158 MiB (10%)
Language: English
Service kind: Complete Main
Default: Yes
Forced: No

Text #1
ID: 3
Format: UTF-8
Codec ID: S_TEXT/UTF8
Codec ID/Info: UTF-8 Plain Text
Duration: 57 min 0 s
Bit rate: 142 b/s
Frame rate: 0.250 FPS
Count of elements: 856
Stream size: 59.5 KiB (0%)
Language: Bulgarian
Default: No
Forced: No

Text #2
ID: 4
Format: UTF-8
Codec ID: S_TEXT/UTF8
Codec ID/Info: UTF-8 Plain Text
Duration: 57 min 0 s
Bit rate: 86 b/s
Frame rate: 0.243 FPS
Count of elements: 832
Stream size: 36.2 KiB (0%)
Language: Czech
Default: No
Forced: No

Text #3
ID: 5
Format: UTF-8
Codec ID: S_TEXT/UTF8
Codec ID/Info: UTF-8 Plain Text
Duration: 57 min 0 s
Bit rate: 83 b/s
Frame rate: 0.247 FPS
Count of elements: 846
Stream size: 34.9 KiB (0%)
Language: Danish
Default: No
Forced: No

Text #4
ID: 6
Format: UTF-8
Codec ID: S_TEXT/UTF8
Codec ID/Info: UTF-8 Plain Text
Duration: 56 min 5 s
Bit rate: 92 b/s
Frame rate: 0.257 FPS
Count of elements: 866
Stream size: 38.0 KiB (0%)
Language: English
Default: No
Forced: No

Text #5
ID: 7
Format: UTF-8
Codec ID: S_TEXT/UTF8
Codec ID/Info: UTF-8 Plain Text
Duration: 57 min 0 s
Bit rate: 78 b/s
Frame rate: 0.259 FPS
Count of elements: 887
Stream size: 32.6 KiB (0%)
Title: European
Language: Spanish
Default: No
Forced: No

Text #6
ID: 8
Format: UTF-8
Codec ID: S_TEXT/UTF8
Codec ID/Info: UTF-8 Plain Text
Duration: 57 min 0 s
Bit rate: 75 b/s
Frame rate: 0.259 FPS
Count of elements: 886
Stream size: 31.7 KiB (0%)
Title: Estonia
Language: Estonian
Default: No
Forced: No

Text #7
ID: 9
Format: UTF-8
Codec ID: S_TEXT/UTF8
Codec ID/Info: UTF-8 Plain Text
Duration: 57 min 0 s
Bit rate: 82 b/s
Frame rate: 0.239 FPS
Count of elements: 816
Stream size: 34.5 KiB (0%)
Language: Finnish
Default: No
Forced: No

Text #8
ID: 10
Format: UTF-8
Codec ID: S_TEXT/UTF8
Codec ID/Info: UTF-8 Plain Text
Duration: 57 min 0 s
Bit rate: 77 b/s
Frame rate: 0.251 FPS
Count of elements: 859
Stream size: 32.5 KiB (0%)
Language: Croatian
Default: No
Forced: No

Text #9
ID: 11
Format: UTF-8
Codec ID: S_TEXT/UTF8
Codec ID/Info: UTF-8 Plain Text
Duration: 57 min 0 s
Bit rate: 87 b/s
Frame rate: 0.238 FPS
Count of elements: 813
Stream size: 36.7 KiB (0%)
Language: Hungarian
Default: No
Forced: No

Text #10
ID: 12
Format: UTF-8
Codec ID: S_TEXT/UTF8
Codec ID/Info: UTF-8 Plain Text
Duration: 57 min 0 s
Bit rate: 83 b/s
Frame rate: 0.259 FPS
Count of elements: 886
Stream size: 35.0 KiB (0%)
Language: Lithuanian
Default: No
Forced: No

Text #11
ID: 13
Format: UTF-8
Codec ID: S_TEXT/UTF8
Codec ID/Info: UTF-8 Plain Text
Duration: 57 min 0 s
Bit rate: 76 b/s
Frame rate: 0.259 FPS
Count of elements: 886
Stream size: 31.8 KiB (0%)
Language: Latvian
Default: No
Forced: No

Text #12
ID: 14
Format: UTF-8
Codec ID: S_TEXT/UTF8
Codec ID/Info: UTF-8 Plain Text
Duration: 57 min 0 s
Bit rate: 137 b/s
Frame rate: 0.210 FPS
Count of elements: 719
Stream size: 57.6 KiB (0%)
Language: Macedonian
Default: No
Forced: No

Text #13
ID: 15
Format: UTF-8
Codec ID: S_TEXT/UTF8
Codec ID/Info: UTF-8 Plain Text
Duration: 57 min 0 s
Bit rate: 85 b/s
Frame rate: 0.259 FPS
Count of elements: 885
Stream size: 35.9 KiB (0%)
Language: Dutch
Default: No
Forced: No

Text #14
ID: 16
Format: UTF-8
Codec ID: S_TEXT/UTF8
Codec ID/Info: UTF-8 Plain Text
Duration: 57 min 0 s
Bit rate: 78 b/s
Frame rate: 0.252 FPS
Count of elements: 862
Stream size: 32.8 KiB (0%)
Language: Norwegian
Default: No
Forced: No

Text #15
ID: 17
Format: UTF-8
Codec ID: S_TEXT/UTF8
Codec ID/Info: UTF-8 Plain Text
Duration: 57 min 0 s
Bit rate: 79 b/s
Frame rate: 0.250 FPS
Count of elements: 855
Stream size: 33.2 KiB (0%)
Language: Polish
Default: No
Forced: No

Text #16
ID: 18
Format: UTF-8
Codec ID: S_TEXT/UTF8
Codec ID/Info: UTF-8 Plain Text
Duration: 57 min 0 s
Bit rate: 80 b/s
Frame rate: 0.255 FPS
Count of elements: 874
Stream size: 33.6 KiB (0%)
Title: European
Language: Portuguese
Default: No
Forced: No

Text #17
ID: 19
Format: UTF-8
Codec ID: S_TEXT/UTF8
Codec ID/Info: UTF-8 Plain Text
Duration: 57 min 0 s
Bit rate: 80 b/s
Frame rate: 0.259 FPS
Count of elements: 887
Stream size: 33.6 KiB (0%)
Language: Romanian
Default: No
Forced: No

Text #18
ID: 20
Format: UTF-8
Codec ID: S_TEXT/UTF8
Codec ID/Info: UTF-8 Plain Text
Duration: 57 min 0 s
Bit rate: 77 b/s
Frame rate: 0.259 FPS
Count of elements: 887
Stream size: 32.3 KiB (0%)
Title: Slovenia
Language: Slovenian
Default: No
Forced: No

Text #19
ID: 21
Format: UTF-8
Codec ID: S_TEXT/UTF8
Codec ID/Info: UTF-8 Plain Text
Duration: 57 min 0 s
Bit rate: 80 b/s
Frame rate: 0.259 FPS
Count of elements: 887
Stream size: 33.6 KiB (0%)
Title: Latin, Serbia
Language: Serbian
Default: No
Forced: No

Text #20
ID: 22
Format: UTF-8
Codec ID: S_TEXT/UTF8
Codec ID/Info: UTF-8 Plain Text
Duration: 57 min 0 s
Bit rate: 80 b/s
Frame rate: 0.216 FPS
Count of elements: 740
Stream size: 33.7 KiB (0%)
Language: Swedish
Default: No
Forced: No

ssl  EZTV RSS EZTV Status | EZTV API | DMCA: [email protected]