eztv.tf | eztvstatus.org
Search title:  
TV Packs only
 

Happily Ever After 2024 S01E02 1080p MyTVSuper WEB-DL AAC H265-HHWEB EZTV

Episode Breakdown
Happily Ever After
Happily Ever After TV Show S01E02

Season: 1
Episode: 2
Air Date: 27 February, 2024
Download Links
     Torrent Download     Magnet Download
     Anonymous Download
Added 2 months ago by eztv (verified).
Tracker Statistics
Seeds: 4
Peers: 0
Stats generated @ 19:33 on 12th Jun 2024
Torrent Info
Torrent File: Happily Ever After 2024 S01E02 1080p MyTVSuper WEB-DL AAC H265-HHWEB[EZTVx.to].mkv
Torrent Hash: 84A5767544FD07DEFF1241A1B5A641A60D360121
Filesize: 1.20 GB
Released: 5th Apr 2024

File Format: MKV (Matroska)
Resolution: 1920x1080 px
Aspect Ratio: 16:9

Happily Ever After S01E02 - Episode 2

Summary:
Happily Ever After 2024 S01E02 1080p MyTVSuper WEB-DL AAC H265-HHWEB EZTV
Happily Ever After S1E2 Screenshot


General
Unique ID: 9469891648391978440153229412620840399 (0x71FD5B4C4FFAD7DDA504C55DE882DCF)
Complete name: Happily Ever After 2024 S01E02 1080p MyTVSuper WEB-DL AAC H265-HHWEB.mkv
Format: Matroska
Format version: Version 4
File size: 1.20 GiB
Duration: 43 min 50 s
Overall bit rate: 3 912 kb/s
Frame rate: 25.000 FPS
Encoded date: 2024-03-05 01:23:21 UTC
Writing application: mkvmerge v74.0.0 ('You Oughta Know') 64-bit
Writing library: libebml v1.4.4 + libmatroska v1.7.1

Video
ID: 1
Format: HEVC
Format/Info: High Efficiency Video Coding
Format profile: Main@L4@Main
Codec ID: V_MPEGH/ISO/HEVC
Duration: 43 min 50 s
Bit rate: 3 781 kb/s
Width: 1 920 pixels
Height: 1 080 pixels
Display aspect ratio: 16:9
Frame rate mode: Constant
Frame rate: 25.000 FPS
Color space: YUV
Chroma subsampling: 4:2:0
Bit depth: 8 bits
Bits/(Pixel*Frame): 0.073
Stream size: 1.16 GiB (97%)
Writing library: VOLOHEVC
Default: Yes
Forced: No

Audio
ID: 2
Format: AAC LC
Format/Info: Advanced Audio Codec Low Complexity
Codec ID: A_AAC-2
Duration: 43 min 50 s
Bit rate: 128 kb/s
Channel(s): 2 channels
Channel layout: L R
Sampling rate: 48.0 kHz
Frame rate: 46.875 FPS (1024 SPF)
Compression mode: Lossy
Stream size: 40.1 MiB (3%)
Default: No
Forced: No

Text #1
ID: 3
Format: UTF-8
Codec ID: S_TEXT/UTF8
Codec ID/Info: UTF-8 Plain Text
Duration: 40 min 47 s
Bit rate: 70 b/s
Frame rate: 0.252 FPS
Count of elements: 618
Stream size: 20.9 KiB (0%)
Language: English
Default: No
Forced: No

Text #2
ID: 4
Format: UTF-8
Codec ID: S_TEXT/UTF8
Codec ID/Info: UTF-8 Plain Text
Duration: 40 min 48 s
Bit rate: 55 b/s
Frame rate: 0.251 FPS
Count of elements: 614
Stream size: 16.7 KiB (0%)
Title: Traditional
Language: Chinese (Traditional)
Default: No
Forced: No

Text #3
ID: 5
Format: UTF-8
Codec ID: S_TEXT/UTF8
Codec ID/Info: UTF-8 Plain Text
Duration: 40 min 48 s
Bit rate: 55 b/s
Frame rate: 0.251 FPS
Count of elements: 614
Stream size: 16.7 KiB (0%)
Title: Simplified
Language: Chinese (Simplified)
Default: Yes
Forced: No
ssl  EZTV RSS EZTV Status | EZTV API | DMCA: [email protected]