eztv.tf | eztvstatus.org
Search title:  
TV Packs only
 

American Conspiracy The Octopus Murders S01E02 The Trap Door 1080p NF WEB-DL DDP5 1 H 264-NTb EZTV

Episode Breakdown
American Conspiracy: The Octopus Murders
American Conspiracy: The Octopus Murders TV Show S01E02

Season: 1
Episode: 2
Air Date: 28 February, 2024
Download Links
     Torrent Download     Magnet Download
     Anonymous Download
Added 2 months ago by eztv (verified).
Tracker Statistics
Seeds: 3
Peers: 1
Stats generated @ 20:27 on 12th Jun 2024
Torrent Info
Torrent File: American Conspiracy The Octopus Murders S01E02 The Trap Door 1080p NF WEB-DL DDP5 1 H 264-NTb[EZTVx.to].mkv
Torrent Hash: 4A3CBCEE3BE61550BA4B0C9458602057A1625D4B
Filesize: 3.16 GB
Released: 4th Apr 2024

File Format: MKV (Matroska)
Resolution: 1920x1080 px
Aspect Ratio: 16:9
Alternate Releases S L
American Conspiracy The Octopus Murders S01E02 1080p WEB h264-EDITH 4 1
American Conspiracy The Octopus Murders S01E02 XviD-AFG 6 0

American Conspiracy: The Octopus Murders S01E02 - The Trap Door

Summary:

Through Danny's research, details surface of an alleged global government surveillance network. In 1981, a triple murder fuels suspicions.



American Conspiracy The Octopus Murders S01E02 The Trap Door 1080p NF WEB-DL DDP5 1 H 264-NTb EZTV
American Conspiracy: The Octopus Murders S1E2 Screenshot


General
Unique ID: 205179537541837433843655362056648664284 (0x9A5C243B7D4406D66AFBFB6B29BC24DC)
Complete name: American Conspiracy The Octopus Murders S01E02 The Trap Door 1080p NF WEB-DL DDP5 1 H 264-NTb.mkv
Format: Matroska
Format version: Version 4
File size: 3.16 GiB
Duration: 55 min 59 s
Overall bit rate mode: Variable
Overall bit rate: 8 080 kb/s
Frame rate: 23.976 FPS
Writing application: mkvmerge v79.0 ('Funeral Pyres') 64-bit
Writing library: libebml v1.4.4 + libmatroska v1.7.1

Video
ID: 1
Format: AVC
Format/Info: Advanced Video Codec
Format profile: High@L4
Format settings: CABAC / 4 Ref Frames
Format settings, CABAC: Yes
Format settings, Reference frames: 4 frames
Codec ID: V_MPEG4/ISO/AVC
Duration: 55 min 59 s
Bit rate mode: Variable
Bit rate: 7 432 kb/s
Maximum bit rate: 20.0 Mb/s
Width: 1 920 pixels
Height: 1 080 pixels
Display aspect ratio: 16:9
Frame rate mode: Constant
Frame rate: 23.976 (24000/1001) FPS
Color space: YUV
Chroma subsampling: 4:2:0
Bit depth: 8 bits
Scan type: Progressive
Bits/(Pixel*Frame): 0.149
Stream size: 2.91 GiB (92%)
Writing library: x264 core 148 r2727 7d026e8
Encoding settings: cabac=1 / ref=4 / deblock=1:0:0 / analyse=0x3:0x111 / me=umh / subme=10 / psy=1 / psy_rd=1.00:0.00 / mixed_ref=1 / me_range=120 / chroma_me=1 / trellis=2 / 8x8dct=1 / cqm=0 / deadzone=21,11 / fast_pskip=1 / chroma_qp_offset=-2 / threads=6 / lookahead_threads=1 / sliced_threads=0 / nr=0 / decimate=1 / interlaced=0 / bluray_compat=0 / stitchable=1 / constrained_intra=0 / bframes=16 / b_pyramid=2 / b_adapt=2 / b_bias=0 / direct=3 / weightb=1 / open_gop=0 / weightp=2 / keyint=240 / keyint_min=121 / scenecut=0 / intra_refresh=0 / rc_lookahead=240 / rc=crf / mbtree=1 / crf=23.0 / qcomp=0.50 / qpmin=6 / qpmax=51 / qpstep=4 / vbv_maxrate=20000 / vbv_bufsize=25000 / crf_max=0.0 / nal_hrd=vbr / filler=0 / ip_ratio=1.40 / aq=1:0.80
Default: Yes
Forced: No

Audio
ID: 2
Format: E-AC-3
Format/Info: Enhanced AC-3
Commercial name: Dolby Digital Plus
Codec ID: A_EAC3
Duration: 55 min 59 s
Bit rate mode: Constant
Bit rate: 640 kb/s
Channel(s): 6 channels
Channel layout: L R C LFE Ls Rs
Sampling rate: 48.0 kHz
Frame rate: 31.250 FPS (1536 SPF)
Compression mode: Lossy
Stream size: 256 MiB (8%)
Language: English
Service kind: Complete Main
Default: Yes
Forced: No

Text #1
ID: 3
Format: UTF-8
Codec ID: S_TEXT/UTF8
Codec ID/Info: UTF-8 Plain Text
Duration: 52 min 32 s
Bit rate: 21 b/s
Frame rate: 0.050 FPS
Count of elements: 158
Stream size: 8.15 KiB (0%)
Title: Forced
Language: English
Default: Yes
Forced: Yes

Text #2
ID: 4
Format: UTF-8
Codec ID: S_TEXT/UTF8
Codec ID/Info: UTF-8 Plain Text
Duration: 53 min 21 s
Bit rate: 91 b/s
Frame rate: 0.237 FPS
Count of elements: 759
Stream size: 35.6 KiB (0%)
Language: English
Default: No
Forced: No

Text #3
ID: 5
Format: UTF-8
Codec ID: S_TEXT/UTF8
Codec ID/Info: UTF-8 Plain Text
Duration: 53 min 27 s
Bit rate: 94 b/s
Frame rate: 0.248 FPS
Count of elements: 794
Stream size: 36.9 KiB (0%)
Title: SDH
Language: English
Default: No
Forced: No

Text #4
ID: 6
Format: UTF-8
Codec ID: S_TEXT/UTF8
Codec ID/Info: UTF-8 Plain Text
Duration: 54 min 33 s
Bit rate: 120 b/s
Frame rate: 0.248 FPS
Count of elements: 811
Stream size: 48.3 KiB (0%)
Language: Arabic
Default: No
Forced: No

Text #5
ID: 7
Format: UTF-8
Codec ID: S_TEXT/UTF8
Codec ID/Info: UTF-8 Plain Text
Duration: 54 min 36 s
Bit rate: 81 b/s
Frame rate: 0.242 FPS
Count of elements: 792
Stream size: 32.7 KiB (0%)
Language: Czech
Default: No
Forced: No

Text #6
ID: 8
Format: UTF-8
Codec ID: S_TEXT/UTF8
Codec ID/Info: UTF-8 Plain Text
Duration: 54 min 36 s
Bit rate: 82 b/s
Frame rate: 0.212 FPS
Count of elements: 696
Stream size: 33.1 KiB (0%)
Language: Danish
Default: No
Forced: No

Text #7
ID: 9
Format: UTF-8
Codec ID: S_TEXT/UTF8
Codec ID/Info: UTF-8 Plain Text
Duration: 54 min 33 s
Bit rate: 89 b/s
Frame rate: 0.237 FPS
Count of elements: 777
Stream size: 35.8 KiB (0%)
Language: German
Default: No
Forced: No

Text #8
ID: 10
Format: UTF-8
Codec ID: S_TEXT/UTF8
Codec ID/Info: UTF-8 Plain Text
Duration: 54 min 35 s
Bit rate: 155 b/s
Frame rate: 0.237 FPS
Count of elements: 778
Stream size: 62.2 KiB (0%)
Language: Greek
Default: No
Forced: No

Text #9
ID: 11
Format: UTF-8
Codec ID: S_TEXT/UTF8
Codec ID/Info: UTF-8 Plain Text
Duration: 54 min 36 s
Bit rate: 82 b/s
Frame rate: 0.230 FPS
Count of elements: 754
Stream size: 33.2 KiB (0%)
Title: Spanish (Latin America) (For English audio)
Language: Spanish (Latin America)
Default: No
Forced: No

Text #10
ID: 12
Format: UTF-8
Codec ID: S_TEXT/UTF8
Codec ID/Info: UTF-8 Plain Text
Duration: 53 min 21 s
Bit rate: 87 b/s
Frame rate: 0.240 FPS
Count of elements: 767
Stream size: 34.2 KiB (0%)
Title: Spanish (Latin America)
Language: Spanish (Latin America)
Default: No
Forced: No

Text #11
ID: 13
Format: UTF-8
Codec ID: S_TEXT/UTF8
Codec ID/Info: UTF-8 Plain Text
Duration: 53 min 21 s
Bit rate: 94 b/s
Frame rate: 0.248 FPS
Count of elements: 795
Stream size: 37.0 KiB (0%)
Title: Spanish (Latin America) (SDH)
Language: Spanish (Latin America)
Default: No
Forced: No

Text #12
ID: 14
Format: UTF-8
Codec ID: S_TEXT/UTF8
Codec ID/Info: UTF-8 Plain Text
Duration: 54 min 35 s
Bit rate: 79 b/s
Frame rate: 0.240 FPS
Count of elements: 787
Stream size: 31.7 KiB (0%)
Title: Spanish (Spain)
Language: Spanish (ES)
Default: No
Forced: No

Text #13
ID: 15
Format: UTF-8
Codec ID: S_TEXT/UTF8
Codec ID/Info: UTF-8 Plain Text
Duration: 54 min 35 s
Bit rate: 86 b/s
Frame rate: 0.229 FPS
Count of elements: 751
Stream size: 34.4 KiB (0%)
Language: Finnish
Default: No
Forced: No

Text #14
ID: 16
Format: UTF-8
Codec ID: S_TEXT/UTF8
Codec ID/Info: UTF-8 Plain Text
Duration: 54 min 34 s
Bit rate: 89 b/s
Frame rate: 0.219 FPS
Count of elements: 718
Stream size: 35.7 KiB (0%)
Language: Filipino
Default: No
Forced: No

Text #15
ID: 17
Format: UTF-8
Codec ID: S_TEXT/UTF8
Codec ID/Info: UTF-8 Plain Text
Duration: 54 min 33 s
Bit rate: 85 b/s
Frame rate: 0.228 FPS
Count of elements: 747
Stream size: 34.1 KiB (0%)
Language: French
Default: No
Forced: No

Text #16
ID: 18
Format: UTF-8
Codec ID: S_TEXT/UTF8
Codec ID/Info: UTF-8 Plain Text
Duration: 54 min 36 s
Bit rate: 108 b/s
Frame rate: 0.250 FPS
Count of elements: 819
Stream size: 43.3 KiB (0%)
Language: Hebrew
Default: No
Forced: No

Text #17
ID: 19
Format: UTF-8
Codec ID: S_TEXT/UTF8
Codec ID/Info: UTF-8 Plain Text
Duration: 54 min 36 s
Bit rate: 81 b/s
Frame rate: 0.240 FPS
Count of elements: 788
Stream size: 32.4 KiB (0%)
Language: Croatian
Default: No
Forced: No

Text #18
ID: 20
Format: UTF-8
Codec ID: S_TEXT/UTF8
Codec ID/Info: UTF-8 Plain Text
Duration: 54 min 36 s
Bit rate: 83 b/s
Frame rate: 0.230 FPS
Count of elements: 754
Stream size: 33.3 KiB (0%)
Language: Hungarian
Default: No
Forced: No

Text #19
ID: 21
Format: UTF-8
Codec ID: S_TEXT/UTF8
Codec ID/Info: UTF-8 Plain Text
Duration: 54 min 36 s
Bit rate: 87 b/s
Frame rate: 0.231 FPS
Count of elements: 758
Stream size: 35.1 KiB (0%)
Language: Indonesian
Default: No
Forced: No

Text #20
ID: 22
Format: UTF-8
Codec ID: S_TEXT/UTF8
Codec ID/Info: UTF-8 Plain Text
Duration: 54 min 33 s
Bit rate: 83 b/s
Frame rate: 0.237 FPS
Count of elements: 775
Stream size: 33.3 KiB (0%)
Language: Italian
Default: No
Forced: No

Text #21
ID: 23
Format: UTF-8
Codec ID: S_TEXT/UTF8
Codec ID/Info: UTF-8 Plain Text
Duration: 54 min 35 s
Bit rate: 77 b/s
Frame rate: 0.236 FPS
Count of elements: 773
Stream size: 31.0 KiB (0%)
Language: Japanese
Default: No
Forced: No

Text #22
ID: 24
Format: UTF-8
Codec ID: S_TEXT/UTF8
Codec ID/Info: UTF-8 Plain Text
Duration: 54 min 32 s
Bit rate: 95 b/s
Frame rate: 0.256 FPS
Count of elements: 839
Stream size: 38.3 KiB (0%)
Language: Korean
Default: No
Forced: No

Text #23
ID: 25
Format: UTF-8
Codec ID: S_TEXT/UTF8
Codec ID/Info: UTF-8 Plain Text
Duration: 54 min 36 s
Bit rate: 82 b/s
Frame rate: 0.242 FPS
Count of elements: 793
Stream size: 33.0 KiB (0%)
Language: Malay
Default: No
Forced: No

Text #24
ID: 26
Format: UTF-8
Codec ID: S_TEXT/UTF8
Codec ID/Info: UTF-8 Plain Text
Duration: 54 min 36 s
Bit rate: 83 b/s
Frame rate: 0.227 FPS
Count of elements: 743
Stream size: 33.5 KiB (0%)
Language: Norwegian Bokmal
Default: No
Forced: No

Text #25
ID: 27
Format: UTF-8
Codec ID: S_TEXT/UTF8
Codec ID/Info: UTF-8 Plain Text
Duration: 54 min 36 s
Bit rate: 82 b/s
Frame rate: 0.225 FPS
Count of elements: 738
Stream size: 32.9 KiB (0%)
Language: Dutch
Default: No
Forced: No

Text #26
ID: 28
Format: UTF-8
Codec ID: S_TEXT/UTF8
Codec ID/Info: UTF-8 Plain Text
Duration: 54 min 36 s
Bit rate: 78 b/s
Frame rate: 0.228 FPS
Count of elements: 746
Stream size: 31.3 KiB (0%)
Language: Polish
Default: No
Forced: No

Text #27
ID: 29
Format: UTF-8
Codec ID: S_TEXT/UTF8
Codec ID/Info: UTF-8 Plain Text
Duration: 54 min 36 s
Bit rate: 84 b/s
Frame rate: 0.243 FPS
Count of elements: 795
Stream size: 33.6 KiB (0%)
Title: Portuguese (Brazil) (For English audio)
Language: Portuguese (BR)
Default: No
Forced: No

Text #28
ID: 30
Format: UTF-8
Codec ID: S_TEXT/UTF8
Codec ID/Info: UTF-8 Plain Text
Duration: 53 min 19 s
Bit rate: 89 b/s
Frame rate: 0.244 FPS
Count of elements: 781
Stream size: 34.9 KiB (0%)
Title: Portuguese (Brazil)
Language: Portuguese (BR)
Default: No
Forced: No

Text #29
ID: 31
Format: UTF-8
Codec ID: S_TEXT/UTF8
Codec ID/Info: UTF-8 Plain Text
Duration: 53 min 27 s
Bit rate: 96 b/s
Frame rate: 0.259 FPS
Count of elements: 830
Stream size: 37.7 KiB (0%)
Title: Portuguese (Brazil) (SDH)
Language: Portuguese (BR)
Default: No
Forced: No

Text #30
ID: 32
Format: UTF-8
Codec ID: S_TEXT/UTF8
Codec ID/Info: UTF-8 Plain Text
Duration: 54 min 36 s
Bit rate: 91 b/s
Frame rate: 0.244 FPS
Count of elements: 799
Stream size: 36.6 KiB (0%)
Title: Portuguese (Portugal)
Language: Portuguese (PT)
Default: No
Forced: No

Text #31
ID: 33
Format: UTF-8
Codec ID: S_TEXT/UTF8
Codec ID/Info: UTF-8 Plain Text
Duration: 54 min 33 s
Bit rate: 85 b/s
Frame rate: 0.228 FPS
Count of elements: 746
Stream size: 34.1 KiB (0%)
Language: Romanian
Default: No
Forced: No

Text #32
ID: 34
Format: UTF-8
Codec ID: S_TEXT/UTF8
Codec ID/Info: UTF-8 Plain Text
Duration: 54 min 35 s
Bit rate: 138 b/s
Frame rate: 0.246 FPS
Count of elements: 805
Stream size: 55.3 KiB (0%)
Language: Russian
Default: No
Forced: No

Text #33
ID: 35
Format: UTF-8
Codec ID: S_TEXT/UTF8
Codec ID/Info: UTF-8 Plain Text
Duration: 54 min 35 s
Bit rate: 77 b/s
Frame rate: 0.192 FPS
Count of elements: 629
Stream size: 31.1 KiB (0%)
Language: Swedish
Default: No
Forced: No

Text #34
ID: 36
Format: UTF-8
Codec ID: S_TEXT/UTF8
Codec ID/Info: UTF-8 Plain Text
Duration: 54 min 36 s
Bit rate: 209 b/s
Frame rate: 0.242 FPS
Count of elements: 794
Stream size: 83.7 KiB (0%)
Language: Thai
Default: No
Forced: No

Text #35
ID: 37
Format: UTF-8
Codec ID: S_TEXT/UTF8
Codec ID/Info: UTF-8 Plain Text
Duration: 54 min 36 s
Bit rate: 84 b/s
Frame rate: 0.235 FPS
Count of elements: 770
Stream size: 33.9 KiB (0%)
Language: Turkish
Default: No
Forced: No

Text #36
ID: 38
Format: UTF-8
Codec ID: S_TEXT/UTF8
Codec ID/Info: UTF-8 Plain Text
Duration: 54 min 36 s
Bit rate: 136 b/s
Frame rate: 0.242 FPS
Count of elements: 793
Stream size: 54.7 KiB (0%)
Language: Ukrainian
Default: No
Forced: No

Text #37
ID: 39
Format: UTF-8
Codec ID: S_TEXT/UTF8
Codec ID/Info: UTF-8 Plain Text
Duration: 54 min 33 s
Bit rate: 108 b/s
Frame rate: 0.241 FPS
Count of elements: 789
Stream size: 43.2 KiB (0%)
Language: Vietnamese
Default: No
Forced: No

Text #38
ID: 40
Format: UTF-8
Codec ID: S_TEXT/UTF8
Codec ID/Info: UTF-8 Plain Text
Duration: 54 min 36 s
Bit rate: 76 b/s
Frame rate: 0.247 FPS
Count of elements: 810
Stream size: 30.8 KiB (0%)
Title: Chinese (Simplified)
Language: Chinese (Simplified)
Default: No
Forced: No

Text #39
ID: 41
Format: UTF-8
Codec ID: S_TEXT/UTF8
Codec ID/Info: UTF-8 Plain Text
Duration: 54 min 36 s
Bit rate: 68 b/s
Frame rate: 0.255 FPS
Count of elements: 836
Stream size: 27.3 KiB (0%)
Title: Chinese (Traditional)
Language: Chinese (Traditional)
Default: No
Forced: No

Menu
00:00:00.000: en:Chapter 1
00:53:39.000: en:Credits

ssl  EZTV RSS EZTV Status | EZTV API | DMCA: [email protected]