eztv.tf | eztvstatus.org
Search title:  
TV Packs only
 

Will Trent S02E05 Capt Duke Wagners Daughter 720p AMZN WEB-DL DDP5 1 H 264-FLUX EZTV

Episode Breakdown
Will Trent
Will Trent TV Show S02E05

Season: 2
Episode: 5
Air Date: 2 April, 2024
Download Links
     Torrent Download     Magnet Download
     Anonymous Download
Added 16 days ago by eztv (verified).
Tracker Statistics
Seeds: 8
Peers: 4
Stats generated @ 23:31 on 19th Apr 2024
Torrent Info
Torrent File: Will Trent S02E05 Capt Duke Wagners Daughter 720p AMZN WEB-DL DDP5 1 H 264-FLUX[EZTVx.to].mkv
Torrent Hash: 77BC0F621D8D6D995BACDD6F13C2983D0F754DCC
Filesize: 1.92 GB
Released: 3rd Apr 2024

File Format: MKV (Matroska)
Resolution: 1280x720 px
Aspect Ratio: 16:9
Alternate Releases S L
Will Trent S02E05 720p HDTV x264-SYNCOPY 76 13
Will Trent S02E05 480p x264-mSD 45 9
Will Trent S02E05 720p HEVC x265-MeGusta 28 12
Will Trent S02E05 Capt Duke Wagners Daughter 1080p AMZN WEB-DL DDP5 1 H 264-FLUX 70 17
Will Trent S02E05 XviD-AFG 14 4
Will Trent S02E05 1080p WEB h264-ELEANOR 11 9
Will Trent S02E05 1080p HEVC x265-MeGusta 57 16

Will Trent S02E05 - Capt. Duke Wagner's Daughter

Summary:

As threats against Amanda escalate, Will investigates, narrowing down a list of potential suspects. Amidst the tension, Amanda is forced to confront moments from her past. Meanwhile, Ormewood struggles in Gina's absence.



Will Trent S02E05 Capt Duke Wagners Daughter 720p AMZN WEB-DL DDP5 1 H 264-FLUX EZTV
Will Trent S2E5 Screenshot


General
Unique ID: 129002260058328100553746641729453313694 (0x610CEE7A529CD05837224361D8104E9E)
Complete name: Will Trent S02E05 Capt Duke Wagners Daughter 720p AMZN WEB-DL DDP5 1 H 264-FLUX.mkv
Format: Matroska
Format version: Version 4
File size: 1.92 GiB
Duration: 42 min 11 s
Overall bit rate: 6 512 kb/s
Frame rate: 23.976 FPS
Writing application: mkvmerge v82.0 ('I'm The President') 64-bit
Writing library: libebml v1.4.5 + libmatroska v1.7.1

Video
ID: 1
Format: AVC
Format/Info: Advanced Video Codec
Format profile: [email protected]
Format settings: CABAC / 4 Ref Frames
Format settings, CABAC: Yes
Format settings, Reference frames: 4 frames
Codec ID: V_MPEG4/ISO/AVC
Duration: 42 min 11 s
Bit rate mode: Constant
Bit rate: 6 000 kb/s
Width: 1 280 pixels
Height: 720 pixels
Display aspect ratio: 16:9
Frame rate mode: Constant
Frame rate: 23.976 (24000/1001) FPS
Color space: YUV
Chroma subsampling: 4:2:0
Bit depth: 8 bits
Scan type: Progressive
Bits/(Pixel*Frame): 0.272
Stream size: 1.73 GiB (90%)
Language: English (US)
Default: Yes
Forced: No
Color range: Limited
Color primaries: BT.709
Transfer characteristics: BT.709
Matrix coefficients: BT.709

Audio
ID: 2
Format: E-AC-3
Format/Info: Enhanced AC-3
Commercial name: Dolby Digital Plus
Codec ID: A_EAC3
Duration: 42 min 11 s
Bit rate mode: Constant
Bit rate: 640 kb/s
Channel(s): 6 channels
Channel layout: L R C LFE Ls Rs
Sampling rate: 48.0 kHz
Frame rate: 31.250 FPS (1536 SPF)
Compression mode: Lossy
Stream size: 193 MiB (10%)
Language: English
Service kind: Complete Main
Default: Yes
Forced: No

Text #1
ID: 3
Format: UTF-8
Codec ID: S_TEXT/UTF8
Codec ID/Info: UTF-8 Plain Text
Duration: 41 min 25 s
Bit rate: 82 b/s
Frame rate: 0.292 FPS
Count of elements: 725
Stream size: 24.9 KiB (0%)
Language: English (US)
Default: No
Forced: No

Text #2
ID: 4
Format: UTF-8
Codec ID: S_TEXT/UTF8
Codec ID/Info: UTF-8 Plain Text
Duration: 41 min 25 s
Bit rate: 89 b/s
Frame rate: 0.324 FPS
Count of elements: 806
Stream size: 27.1 KiB (0%)
Title: SDH
Language: English (US)
Default: No
Forced: No

Menu
00:00:00.000: en:Scene 1
00:00:03.000: en:Recap
00:00:31.000: en:Scene 2
00:41:31.000: en:End Credits

ssl  EZTV RSS EZTV Status | EZTV API | DMCA: [email protected]