eztv.tf | eztvstatus.org
Search title:  
TV Packs only
 

Will Trent S02E04 Its Easier to Handcuff a Human Being 1080p AMZN WEB-DL DDP5 1 H 264-FLUX EZTV

Episode Breakdown
Will Trent
Will Trent TV Show S02E04

Season: 2
Episode: 4
Air Date: 26 March, 2024
Download Links
     Torrent Download     Magnet Download
     Anonymous Download
Added 20 days ago by eztv (verified).
Tracker Statistics
Seeds: 5
Peers: 5
Stats generated @ 09:11 on 23rd Apr 2024
Torrent Info
Torrent File: Will Trent S02E04 Its Easier to Handcuff a Human Being 1080p AMZN WEB-DL DDP5 1 H 264-FLUX[EZTVx.to].mkv
Torrent Hash: 62EAA3A3ABFD9950A011D25BFD6169D254999A8A
Filesize: 3.04 GB
Released: 3rd Apr 2024

File Format: MKV (Matroska)
Resolution: 1920x1080 px
Aspect Ratio: 16:9
Alternate Releases S L
Will Trent S02E04 720p HDTV x264-SYNCOPY 27 5
Will Trent S02E04 720p HEVC x265-MeGusta 35 4
Will Trent S02E04 XviD-AFG 13 5
Will Trent S02E04 480p x264-mSD 32 10
Will Trent S02E04 1080p WEB h264-ELEANOR 27 7
Will Trent S02E04 1080p HEVC x265-MeGusta 27 14
Will Trent S02E04 720p x264-FENiX 4 3

Will Trent S02E04 - It's Easier to Handcuff a Human Being

Summary:

Will and Faith investigate a small town haunted by the "Boo Hag," where a suspect is quickly assumed, but connections to the past unveil unexpected surprises. Meanwhile, Ormewood investigates a TV star's murder, and Amanda senses impending danger.



Will Trent S02E04 Its Easier to Handcuff a Human Being 1080p AMZN WEB-DL DDP5 1 H 264-FLUX EZTV
Will Trent S2E4 Screenshot


General
Unique ID: 51382961571139692772921050231651601030 (0x26A7FF993F44032AC077DD46FAF28A86)
Complete name: Will Trent S02E04 Its Easier to Handcuff a Human Being 1080p AMZN WEB-DL DDP5 1 H 264-FLUX.mkv
Format: Matroska
Format version: Version 4
File size: 3.04 GiB
Duration: 42 min 45 s
Overall bit rate: 10.2 Mb/s
Frame rate: 23.976 FPS
Writing application: mkvmerge v82.0 ('I'm The President') 64-bit
Writing library: libebml v1.4.5 + libmatroska v1.7.1

Video
ID: 1
Format: AVC
Format/Info: Advanced Video Codec
Format profile: High@L4
Format settings: CABAC / 4 Ref Frames
Format settings, CABAC: Yes
Format settings, Reference frames: 4 frames
Codec ID: V_MPEG4/ISO/AVC
Duration: 42 min 45 s
Bit rate mode: Constant
Bit rate: 10 000 kb/s
Width: 1 920 pixels
Height: 1 080 pixels
Display aspect ratio: 16:9
Frame rate mode: Constant
Frame rate: 23.976 (24000/1001) FPS
Color space: YUV
Chroma subsampling: 4:2:0
Bit depth: 8 bits
Scan type: Progressive
Bits/(Pixel*Frame): 0.201
Stream size: 2.85 GiB (94%)
Language: English (US)
Default: Yes
Forced: No
Color range: Limited
Color primaries: BT.709
Transfer characteristics: BT.709
Matrix coefficients: BT.709

Audio
ID: 2
Format: E-AC-3
Format/Info: Enhanced AC-3
Commercial name: Dolby Digital Plus
Codec ID: A_EAC3
Duration: 42 min 45 s
Bit rate mode: Constant
Bit rate: 640 kb/s
Channel(s): 6 channels
Channel layout: L R C LFE Ls Rs
Sampling rate: 48.0 kHz
Frame rate: 31.250 FPS (1536 SPF)
Compression mode: Lossy
Stream size: 196 MiB (6%)
Language: English
Service kind: Complete Main
Default: Yes
Forced: No

Text #1
ID: 3
Format: UTF-8
Codec ID: S_TEXT/UTF8
Codec ID/Info: UTF-8 Plain Text
Duration: 41 min 32 s
Bit rate: 98 b/s
Frame rate: 0.326 FPS
Count of elements: 812
Stream size: 29.9 KiB (0%)
Language: English (US)
Default: No
Forced: No

Text #2
ID: 4
Format: UTF-8
Codec ID: S_TEXT/UTF8
Codec ID/Info: UTF-8 Plain Text
Duration: 41 min 45 s
Bit rate: 102 b/s
Frame rate: 0.344 FPS
Count of elements: 861
Stream size: 31.4 KiB (0%)
Title: SDH
Language: English (US)
Default: No
Forced: No

Menu
00:00:00.000: en:Scene 1
00:00:03.000: en:Recap
00:00:40.000: en:Scene 2
00:42:05.000: en:End Credits

ssl  EZTV RSS EZTV Status | EZTV API | DMCA: [email protected]