eztv.tf | eztvstatus.org
Search title:  
TV Packs only
 

The Cleaning Lady US S03E05 All of Me 1080p AMZN WEB-DL DDP5 1 H 264-FLUX EZTV

Episode Breakdown
The Cleaning Lady
The Cleaning Lady TV Show S03E05

Season: 3
Episode: 5
Air Date: 2 April, 2024
Download Links
     Torrent Download     Magnet Download
     Anonymous Download
Added 16 days ago by eztv (verified).
Tracker Statistics
Seeds: 21
Peers: 9
Stats generated @ 00:08 on 20th Apr 2024
Torrent Info
Torrent File: The Cleaning Lady US S03E05 All of Me 1080p AMZN WEB-DL DDP5 1 H 264-FLUX[EZTVx.to].mkv
Torrent Hash: 86EDB5198B6C79886B56D51BCB03357D8C4097B0
Filesize: 1.70 GB
Released: 3rd Apr 2024

File Format: MKV (Matroska)
Resolution: 1920x1080 px
Aspect Ratio: 16:9
Alternate Releases S L
The Cleaning Lady S03E05 720p HDTV x264-SYNCOPY 35 8
The Cleaning Lady S03E05 480p x264-mSD 24 3
The Cleaning Lady S03E05 720p HEVC x265-MeGusta 27 2
The Cleaning Lady S03E05 720p WEB h264-BAE 7 3
The Cleaning Lady S03E05 1080p HEVC x265-MeGusta 49 8
The Cleaning Lady S03E05 1080p WEB h264-BAE 11 2
The Cleaning Lady S03E05 XviD-AFG 19 3

The Cleaning Lady S03E05 - All of Me

Summary:

When Thony and Fiona are faced with a terrifying situation, they set out to fix it before it's too late; Jorge throws a wrench in Ramona's plan to find Arman, and Ramona starts to question his allegiance.



The Cleaning Lady US S03E05 All of Me 1080p AMZN WEB-DL DDP5 1 H 264-FLUX EZTV
The Cleaning Lady S3E5 Screenshot


General
Unique ID: 49421669189011941412491429542781411448 (0x252E446B1A87FDFF08A313DDEBAE6078)
Complete name: The Cleaning Lady US S03E05 All of Me 1080p AMZN WEB-DL DDP5 1 H 264-FLUX.mkv
Format: Matroska
Format version: Version 4
File size: 1.70 GiB
Duration: 43 min 59 s
Overall bit rate: 5 523 kb/s
Frame rate: 23.976 FPS
Writing application: mkvmerge v82.0 ('I'm The President') 64-bit
Writing library: libebml v1.4.5 + libmatroska v1.7.1

Video
ID: 1
Format: AVC
Format/Info: Advanced Video Codec
Format profile: High@L4
Format settings: CABAC / 4 Ref Frames
Format settings, CABAC: Yes
Format settings, Reference frames: 4 frames
Codec ID: V_MPEG4/ISO/AVC
Duration: 43 min 59 s
Bit rate mode: Constant
Bit rate: 4 881 kb/s
Nominal bit rate: 10 000 kb/s
Width: 1 920 pixels
Height: 960 pixels
Display aspect ratio: 2.000
Frame rate mode: Constant
Frame rate: 23.976 (24000/1001) FPS
Color space: YUV
Chroma subsampling: 4:2:0
Bit depth: 8 bits
Scan type: Progressive
Bits/(Pixel*Frame): 0.110
Stream size: 1.50 GiB (88%)
Language: English
Default: Yes
Forced: No
Color range: Limited
Color primaries: BT.709
Transfer characteristics: BT.709
Matrix coefficients: BT.709

Audio
ID: 2
Format: E-AC-3
Format/Info: Enhanced AC-3
Commercial name: Dolby Digital Plus
Codec ID: A_EAC3
Duration: 43 min 59 s
Bit rate mode: Constant
Bit rate: 640 kb/s
Channel(s): 6 channels
Channel layout: L R C LFE Ls Rs
Sampling rate: 48.0 kHz
Frame rate: 31.250 FPS (1536 SPF)
Compression mode: Lossy
Stream size: 201 MiB (12%)
Language: English
Service kind: Complete Main
Default: Yes
Forced: No

Text #1
ID: 3
Format: UTF-8
Codec ID: S_TEXT/UTF8
Codec ID/Info: UTF-8 Plain Text
Duration: 43 min 2 s
Bit rate: 78 b/s
Frame rate: 0.290 FPS
Count of elements: 749
Stream size: 24.9 KiB (0%)
Language: English (US)
Default: No
Forced: No

Text #2
ID: 4
Format: UTF-8
Codec ID: S_TEXT/UTF8
Codec ID/Info: UTF-8 Plain Text
Duration: 43 min 48 s
Bit rate: 84 b/s
Frame rate: 0.328 FPS
Count of elements: 861
Stream size: 27.0 KiB (0%)
Title: SDH
Language: English (US)
Default: No
Forced: No

Menu
00:00:00.000: en:Scene 1
00:43:54.000: en:End Credits

ssl  EZTV RSS EZTV Status | EZTV API | DMCA: [email protected]