eztv.tf | eztvstatus.org
Search title:  
TV Packs only
 

FBI S06E07 Behind the Veil 720p AMZN WEB-DL DDP5 1 H 264-FLUX EZTV

Episode Breakdown
FBI: Most Wanted
FBI: Most Wanted TV Show S06E07

Season: 6
Episode: 7
Download Links
     Torrent Download     Magnet Download
     Anonymous Download
Added 20 days ago by eztv (verified).
Tracker Statistics
Seeds: 9
Peers: 6
Stats generated @ 09:27 on 23rd Apr 2024
Torrent Info
Torrent File: FBI S06E07 Behind the Veil 720p AMZN WEB-DL DDP5 1 H 264-FLUX[EZTVx.to].mkv
Torrent Hash: 88AE4B24AB84E9906845D8E6DB01ED4719759025
Filesize: 1.44 GB
Released: 3rd Apr 2024

File Format: MKV (Matroska)
Resolution: 1280x720 px
Aspect Ratio: 16:9
Alternate Releases S L
FBI S06E07 480p x264-mSD 59 12
FBI S06E07 720p HEVC x265-MeGusta 26 4
FBI S06E07 1080p WEB h264-ETHEL 54 5
FBI S06E07 1080p HEVC x265-MeGusta 49 5
FBI S06E07 Behind the Veil 1080p AMZN WEB-DL DDP5 1 H 264-FLUX 10 1
FBI S06E07 720p x265-T0PAZ 7 3
FBI S06E07 1080p x265-ELiTE 12 5

Episode Description
FBI S06E07 Behind the Veil 720p AMZN WEB-DL DDP5 1 H 264-FLUX EZTV
FBI: Most Wanted S6E7 Screenshot


General
Unique ID: 334411784689923096490212702725932922844 (0xFB955DF2FE39C9F6F2A7D8145A6537DC)
Complete name: FBI S06E07 Behind the Veil 720p AMZN WEB-DL DDP5 1 H 264-FLUX.mkv
Format: Matroska
Format version: Version 4
File size: 1.44 GiB
Duration: 43 min 10 s
Overall bit rate: 4 767 kb/s
Frame rate: 23.976 FPS
Writing application: mkvmerge v82.0 ('I'm The President') 64-bit
Writing library: libebml v1.4.5 + libmatroska v1.7.1

Video
ID: 1
Format: AVC
Format/Info: Advanced Video Codec
Format profile: [email protected]
Format settings: CABAC / 4 Ref Frames
Format settings, CABAC: Yes
Format settings, Reference frames: 4 frames
Codec ID: V_MPEG4/ISO/AVC
Duration: 43 min 10 s
Bit rate mode: Constant
Bit rate: 4 125 kb/s
Nominal bit rate: 6 000 kb/s
Width: 1 280 pixels
Height: 720 pixels
Display aspect ratio: 16:9
Frame rate mode: Constant
Frame rate: 23.976 (24000/1001) FPS
Color space: YUV
Chroma subsampling: 4:2:0
Bit depth: 8 bits
Scan type: Progressive
Bits/(Pixel*Frame): 0.187
Stream size: 1.24 GiB (87%)
Language: English (US)
Default: Yes
Forced: No
Color range: Limited
Color primaries: BT.709
Transfer characteristics: BT.709
Matrix coefficients: BT.709

Audio
ID: 2
Format: E-AC-3
Format/Info: Enhanced AC-3
Commercial name: Dolby Digital Plus
Codec ID: A_EAC3
Duration: 43 min 10 s
Bit rate mode: Constant
Bit rate: 640 kb/s
Channel(s): 6 channels
Channel layout: L R C LFE Ls Rs
Sampling rate: 48.0 kHz
Frame rate: 31.250 FPS (1536 SPF)
Compression mode: Lossy
Stream size: 198 MiB (13%)
Language: English
Service kind: Complete Main
Default: Yes
Forced: No

Text #1
ID: 3
Format: UTF-8
Codec ID: S_TEXT/UTF8
Codec ID/Info: UTF-8 Plain Text
Duration: 42 min 15 s
Bit rate: 77 b/s
Frame rate: 0.325 FPS
Count of elements: 823
Stream size: 23.9 KiB (0%)
Language: English (US)
Default: No
Forced: No

Text #2
ID: 4
Format: UTF-8
Codec ID: S_TEXT/UTF8
Codec ID/Info: UTF-8 Plain Text
Duration: 43 min 3 s
Bit rate: 78 b/s
Frame rate: 0.347 FPS
Count of elements: 896
Stream size: 24.9 KiB (0%)
Title: SDH
Language: English (US)
Default: No
Forced: No

Menu
00:00:00.000: en:Scene 1
00:43:05.000: en:End Credits

ssl  EZTV RSS EZTV Status | EZTV API | DMCA: [email protected]