eztv.tf | eztvstatus.org
Search title:  
TV Packs only
 

The Valley 2024 S01E03 Doubting Doute 1080p AMZN WEB-DL DDP2 0 H 264-NTb EZTV

Episode Breakdown
The Valley
The Valley TV Show S01E03

Season: 1
Episode: 3
Air Date: 2 April, 2024
Download Links
     Torrent Download     Magnet Download
     Anonymous Download
Added 16 days ago by eztv (verified).
Tracker Statistics
Seeds: 52
Peers: 9
Stats generated @ 23:16 on 19th Apr 2024
Torrent Info
Torrent File: The Valley 2024 S01E03 Doubting Doute 1080p AMZN WEB-DL DDP2 0 H 264-NTb[EZTVx.to].mkv
Torrent Hash: C93C413660AD28670CCB44F81CB52336A94BA5A9
Filesize: 2.62 GB
Released: 3rd Apr 2024

File Format: MKV (Matroska)
Resolution: 1920x1080 px
Aspect Ratio: 16:9
Alternate Releases S L
The Valley 2024 S01E03 1080p WEB h264-EDITH 8 0
The Valley 2024 S01E03 XviD-AFG 17 3

The Valley S01E03 - Doubting Doute

Summary:

While everyone turns against Kristen for the accusations she hurled at Michelle during Girl's Night, Brittany tries to help her understand the impact of her actions. Jax interviews bartenders for his new bar. Jesse and Michelle discover how fractured their relationship really is during their first marital counseling session. Janet and Jason stress about not feeling prepared for their new baby. A lavish Capri-themed dinner party is brought to a halt when Kristen is forced to relive one of the most difficult moments of her life.



The Valley 2024 S01E03 Doubting Doute 1080p AMZN WEB-DL DDP2 0 H 264-NTb EZTV
The Valley S1E3 Screenshot


General
Unique ID: 166199318566347797893019970384498830975 (0x7D08D30E43075B55CCE8038E2508AE7F)
Complete name: The Valley 2024 S01E03 Doubting Doute 1080p AMZN WEB-DL DDP2 0 H 264-NTb.mkv
Format: Matroska
Format version: Version 4
File size: 2.62 GiB
Duration: 42 min 35 s
Overall bit rate: 8 820 kb/s
Frame rate: 23.976 FPS
Writing application: mkvmerge v81.0 ('Milliontown') 64-bit
Writing library: libebml v1.4.4 + libmatroska v1.7.1

Video
ID: 1
Format: AVC
Format/Info: Advanced Video Codec
Format profile: High@L4
Format settings: CABAC / 4 Ref Frames
Format settings, CABAC: Yes
Format settings, Reference frames: 4 frames
Codec ID: V_MPEG4/ISO/AVC
Duration: 42 min 35 s
Bit rate mode: Constant
Bit rate: 8 594 kb/s
Nominal bit rate: 10 000 kb/s
Width: 1 920 pixels
Height: 1 080 pixels
Display aspect ratio: 16:9
Frame rate mode: Constant
Frame rate: 23.976 (24000/1001) FPS
Color space: YUV
Chroma subsampling: 4:2:0
Bit depth: 8 bits
Scan type: Progressive
Bits/(Pixel*Frame): 0.173
Stream size: 2.56 GiB (97%)
Default: Yes
Forced: No
Color range: Limited
Color primaries: BT.709
Transfer characteristics: BT.709
Matrix coefficients: BT.709

Audio
ID: 2
Format: E-AC-3
Format/Info: Enhanced AC-3
Commercial name: Dolby Digital Plus
Codec ID: A_EAC3
Duration: 42 min 35 s
Bit rate mode: Constant
Bit rate: 224 kb/s
Channel(s): 2 channels
Channel layout: L R
Sampling rate: 48.0 kHz
Frame rate: 31.250 FPS (1536 SPF)
Compression mode: Lossy
Stream size: 68.2 MiB (3%)
Language: English (US)
Service kind: Complete Main
Default: Yes
Forced: No

Text #1
ID: 3
Format: UTF-8
Codec ID: S_TEXT/UTF8
Codec ID/Info: UTF-8 Plain Text
Duration: 42 min 24 s
Bit rate: 113 b/s
Frame rate: 0.422 FPS
Count of elements: 1074
Stream size: 35.4 KiB (0%)
Language: English (US)
Default: No
Forced: No

Text #2
ID: 4
Format: UTF-8
Codec ID: S_TEXT/UTF8
Codec ID/Info: UTF-8 Plain Text
Duration: 42 min 31 s
Bit rate: 116 b/s
Frame rate: 0.440 FPS
Count of elements: 1124
Stream size: 36.3 KiB (0%)
Title: SDH
Language: English (US)
Default: No
Forced: No
ssl  EZTV RSS EZTV Status | EZTV API | DMCA: [email protected]