eztv.tf | eztvstatus.org
Search title:  
TV Packs only
 

The Synanon Fix S01E01 Here come the dopefiends 720p HMAX WEB-DL DD5 1 H 264-playWEB EZTV

Episode Breakdown
The Synanon Fix
The Synanon Fix TV Show S01E01

Season: 1
Episode: 1
Air Date: 1 April, 2024
Download Links
     Torrent Download     Magnet Download
     Anonymous Download
Added 1 month ago by eztv (verified).
Tracker Statistics
Seeds: 1
Peers: 2
Stats generated @ 07:45 on 25th May 2024
Torrent Info
Torrent File: The Synanon Fix S01E01 Here come the dopefiends 720p HMAX WEB-DL DD5 1 H 264-playWEB[EZTVx.to].mkv
Torrent Hash: E21EEB9C997DB659E3CE6409DF01794CF559E885
Filesize: 1.50 GB
Released: 2nd Apr 2024

File Format: MKV (Matroska)
Resolution: 1280x720 px
Aspect Ratio: 16:9
Alternate Releases S L
The Synanon Fix S01E01 1080p WEB h264-EDITH 5 2
The Synanon Fix S01E01 1080p HEVC x265-MeGusta 8 3
The Synanon Fix S01E01 XviD-AFG 4 4
The Synanon Fix S01E01 Here Come the Dopefiends 1080p AMZN WEB-DL DDP5 1 H 264-FLUX 6 4

The Synanon Fix S01E01 - Here come the dopefiends

Summary:

Recovering alcoholic Charles "Chuck" Dederich opens a storefront drug rehabilitation program in Santa Monica in 1958, offering addicts a welcoming space to work through their problems via emotional, verbal catharsis. Synanon, as he names it, soon attracts celebrities and non-addicts who donate their time and wealth to the program. The community grows into a social movement that expands across the country, with thousands of people saying Synanon saved their lives.



The Synanon Fix S01E01 Here come the dopefiends 720p HMAX WEB-DL DD5 1 H 264-playWEB EZTV
The Synanon Fix S1E1 Screenshot


General
Unique ID: 279026526319302369653991253442147745552 (0xD1EA8DE220700859DDBB23355A4D7F10)
Complete name: The Synanon Fix S01E01 Here come the dopefiends 720p HMAX WEB-DL DD5 1 H 264-playWEB.mkv
Format: Matroska
Format version: Version 4
File size: 1.50 GiB
Duration: 57 min 0 s
Overall bit rate mode: Variable
Overall bit rate: 3 775 kb/s
Frame rate: 25.000 FPS
Writing application: mkvmerge v83.0 ('Circle Of Friends') 64-bit
Writing library: libebml v1.4.5 + libmatroska v1.7.1

Video
ID: 1
Format: AVC
Format/Info: Advanced Video Codec
Format profile: [email protected]
Format settings: CABAC / 4 Ref Frames
Format settings, CABAC: Yes
Format settings, Reference frames: 4 frames
Codec ID: V_MPEG4/ISO/AVC
Duration: 57 min 0 s
Bit rate mode: Variable
Bit rate: 3 400 kb/s
Maximum bit rate: 5 100 kb/s
Width: 1 280 pixels
Height: 720 pixels
Display aspect ratio: 16:9
Frame rate mode: Constant
Frame rate: 25.000 FPS
Color space: YUV
Chroma subsampling: 4:2:0
Bit depth: 8 bits
Scan type: Progressive
Bits/(Pixel*Frame): 0.148
Stream size: 1.35 GiB (90%)
Writing library: x264 core 157 r2965 861cec4
Encoding settings: cabac=1 / ref=4 / deblock=1:0:0 / analyse=0x1:0x111 / me=hex / subme=7 / psy=1 / psy_rd=1.00:0.00 / mixed_ref=1 / me_range=16 / chroma_me=1 / trellis=1 / 8x8dct=0 / cqm=0 / deadzone=21,11 / fast_pskip=1 / chroma_qp_offset=-2 / threads=22 / lookahead_threads=3 / sliced_threads=0 / nr=0 / decimate=1 / interlaced=0 / bluray_compat=0 / constrained_intra=0 / bframes=3 / b_pyramid=2 / b_adapt=1 / b_bias=0 / direct=1 / weightb=1 / open_gop=0 / weightp=2 / keyint=100 / keyint_min=100 / scenecut=40 / intra_refresh=0 / rc_lookahead=40 / rc=2pass / mbtree=1 / bitrate=3400 / ratetol=1.0 / qcomp=0.60 / qpmin=0 / qpmax=69 / qpstep=4 / cplxblur=20.0 / qblur=0.5 / vbv_maxrate=5100 / vbv_bufsize=2550 / nal_hrd=vbr / filler=0 / ip_ratio=1.40 / aq=1:1.00
Language: English (US)
Default: Yes
Forced: No
Color range: Limited
Color primaries: BT.709
Transfer characteristics: BT.709
Matrix coefficients: BT.709

Audio
ID: 2
Format: AC-3
Format/Info: Audio Coding 3
Commercial name: Dolby Digital
Codec ID: A_AC3
Duration: 57 min 0 s
Bit rate mode: Constant
Bit rate: 384 kb/s
Channel(s): 6 channels
Channel layout: L R C LFE Ls Rs
Sampling rate: 48.0 kHz
Frame rate: 31.250 FPS (1536 SPF)
Compression mode: Lossy
Stream size: 157 MiB (10%)
Language: English (US)
Service kind: Complete Main
Default: Yes
Forced: No

Text #1
ID: 3
Format: UTF-8
Codec ID: S_TEXT/UTF8
Codec ID/Info: UTF-8 Plain Text
Duration: 55 min 40 s
Bit rate: 81 b/s
Frame rate: 0.254 FPS
Count of elements: 848
Stream size: 33.1 KiB (0%)
Language: English (US)
Default: No
Forced: No

Text #2
ID: 4
Format: UTF-8
Codec ID: S_TEXT/UTF8
Codec ID/Info: UTF-8 Plain Text
Duration: 55 min 45 s
Bit rate: 134 b/s
Frame rate: 0.254 FPS
Count of elements: 851
Stream size: 55.0 KiB (0%)
Language: Bulgarian (BG)
Default: No
Forced: No

Text #3
ID: 5
Format: UTF-8
Codec ID: S_TEXT/UTF8
Codec ID/Info: UTF-8 Plain Text
Duration: 55 min 45 s
Bit rate: 81 b/s
Frame rate: 0.273 FPS
Count of elements: 914
Stream size: 33.5 KiB (0%)
Title: Czechia
Language: Czech (CZ)
Default: No
Forced: No

Text #4
ID: 6
Format: UTF-8
Codec ID: S_TEXT/UTF8
Codec ID/Info: UTF-8 Plain Text
Duration: 55 min 45 s
Bit rate: 81 b/s
Frame rate: 0.280 FPS
Count of elements: 937
Stream size: 33.4 KiB (0%)
Language: Danish (DK)
Default: No
Forced: No

Text #5
ID: 7
Format: UTF-8
Codec ID: S_TEXT/UTF8
Codec ID/Info: UTF-8 Plain Text
Duration: 55 min 45 s
Bit rate: 83 b/s
Frame rate: 0.279 FPS
Count of elements: 934
Stream size: 34.2 KiB (0%)
Language: Spanish (ES)
Default: No
Forced: No

Text #6
ID: 8
Format: UTF-8
Codec ID: S_TEXT/UTF8
Codec ID/Info: UTF-8 Plain Text
Duration: 55 min 45 s
Bit rate: 79 b/s
Frame rate: 0.280 FPS
Count of elements: 938
Stream size: 32.6 KiB (0%)
Title: Estonia
Language: Estonian (EE)
Default: No
Forced: No

Text #7
ID: 9
Format: UTF-8
Codec ID: S_TEXT/UTF8
Codec ID/Info: UTF-8 Plain Text
Duration: 55 min 45 s
Bit rate: 80 b/s
Frame rate: 0.268 FPS
Count of elements: 897
Stream size: 32.8 KiB (0%)
Language: Finnish (FI)
Default: No
Forced: No

Text #8
ID: 10
Format: UTF-8
Codec ID: S_TEXT/UTF8
Codec ID/Info: UTF-8 Plain Text
Duration: 55 min 45 s
Bit rate: 78 b/s
Frame rate: 0.280 FPS
Count of elements: 936
Stream size: 32.0 KiB (0%)
Language: Croatian (HR)
Default: No
Forced: No

Text #9
ID: 11
Format: UTF-8
Codec ID: S_TEXT/UTF8
Codec ID/Info: UTF-8 Plain Text
Duration: 55 min 45 s
Bit rate: 84 b/s
Frame rate: 0.248 FPS
Count of elements: 831
Stream size: 34.7 KiB (0%)
Language: Hungarian (HU)
Default: No
Forced: No

Text #10
ID: 12
Format: UTF-8
Codec ID: S_TEXT/UTF8
Codec ID/Info: UTF-8 Plain Text
Duration: 55 min 45 s
Bit rate: 80 b/s
Frame rate: 0.280 FPS
Count of elements: 938
Stream size: 32.7 KiB (0%)
Language: Lithuanian (LT)
Default: No
Forced: No

Text #11
ID: 13
Format: UTF-8
Codec ID: S_TEXT/UTF8
Codec ID/Info: UTF-8 Plain Text
Duration: 55 min 45 s
Bit rate: 82 b/s
Frame rate: 0.280 FPS
Count of elements: 938
Stream size: 33.6 KiB (0%)
Language: Latvian (LV)
Default: No
Forced: No

Text #12
ID: 14
Format: UTF-8
Codec ID: S_TEXT/UTF8
Codec ID/Info: UTF-8 Plain Text
Duration: 55 min 45 s
Bit rate: 132 b/s
Frame rate: 0.216 FPS
Count of elements: 722
Stream size: 54.0 KiB (0%)
Language: Macedonian (MK)
Default: No
Forced: No

Text #13
ID: 15
Format: UTF-8
Codec ID: S_TEXT/UTF8
Codec ID/Info: UTF-8 Plain Text
Duration: 55 min 45 s
Bit rate: 87 b/s
Frame rate: 0.280 FPS
Count of elements: 937
Stream size: 35.6 KiB (0%)
Language: Dutch (NL)
Default: No
Forced: No

Text #14
ID: 16
Format: UTF-8
Codec ID: S_TEXT/UTF8
Codec ID/Info: UTF-8 Plain Text
Duration: 55 min 45 s
Bit rate: 77 b/s
Frame rate: 0.277 FPS
Count of elements: 926
Stream size: 31.8 KiB (0%)
Language: Norwegian (NO)
Default: No
Forced: No

Text #15
ID: 17
Format: UTF-8
Codec ID: S_TEXT/UTF8
Codec ID/Info: UTF-8 Plain Text
Duration: 55 min 45 s
Bit rate: 74 b/s
Frame rate: 0.276 FPS
Count of elements: 922
Stream size: 30.5 KiB (0%)
Language: Polish (PL)
Default: No
Forced: No

Text #16
ID: 18
Format: UTF-8
Codec ID: S_TEXT/UTF8
Codec ID/Info: UTF-8 Plain Text
Duration: 55 min 45 s
Bit rate: 86 b/s
Frame rate: 0.281 FPS
Count of elements: 940
Stream size: 35.2 KiB (0%)
Language: Portuguese (PT)
Default: No
Forced: No

Text #17
ID: 19
Format: UTF-8
Codec ID: S_TEXT/UTF8
Codec ID/Info: UTF-8 Plain Text
Duration: 55 min 45 s
Bit rate: 80 b/s
Frame rate: 0.253 FPS
Count of elements: 845
Stream size: 32.7 KiB (0%)
Language: Romanian (RO)
Default: No
Forced: No

Text #18
ID: 20
Format: UTF-8
Codec ID: S_TEXT/UTF8
Codec ID/Info: UTF-8 Plain Text
Duration: 55 min 45 s
Bit rate: 71 b/s
Frame rate: 0.281 FPS
Count of elements: 939
Stream size: 29.2 KiB (0%)
Title: Slovenia
Language: Slovenian (SI)
Default: No
Forced: No

Text #19
ID: 21
Format: UTF-8
Codec ID: S_TEXT/UTF8
Codec ID/Info: UTF-8 Plain Text
Duration: 55 min 45 s
Bit rate: 80 b/s
Frame rate: 0.281 FPS
Count of elements: 939
Stream size: 32.8 KiB (0%)
Title: Latin, Serbia
Language: Serbian-Latn-RS
Default: No
Forced: No

Text #20
ID: 22
Format: UTF-8
Codec ID: S_TEXT/UTF8
Codec ID/Info: UTF-8 Plain Text
Duration: 55 min 45 s
Bit rate: 82 b/s
Frame rate: 0.245 FPS
Count of elements: 821
Stream size: 33.6 KiB (0%)
Language: Swedish (SE)
Default: No
Forced: No

ssl  EZTV RSS EZTV Status | EZTV API | DMCA: [email protected]