eztv.tf | eztvstatus.org
Search title:  
TV Packs only
 

Shogun 2024 S01E07 A Stick of Time 720p DSNP WEB-DL DD 5 1 H 264-playWEB EZTV

Episode Breakdown
Shogun
Shogun TV Show S01E07

Season: 1
Episode: 7
Air Date: 2 April, 2024
Download Links
     Torrent Download     Magnet Download
     Anonymous Download
Added 17 days ago by eztv (verified).
Tracker Statistics
Seeds: 269
Peers: 249
Stats generated @ 23:25 on 19th Apr 2024
Torrent Info
Torrent File: Shogun 2024 S01E07 A Stick of Time 720p DSNP WEB-DL DD 5 1 H 264-playWEB[EZTVx.to].mkv
Torrent Hash: B248D5A17A64F5AD55647577A12C7788184C1C9E
Filesize: 1.26 GB
Released: 2nd Apr 2024

File Format: MKV (Matroska)
Resolution: 1280x720 px
Aspect Ratio: 16:9
Alternate Releases S L
Shogun 2024 S01E07 1080p WEB H264-SuccessfulCrab 2,497 462
Shogun 2024 S01E07 1080p HEVC x265-MeGusta 772 125
Shogun S01E07 A Stick of Time 1080p DSNP WEB-DL DDP5 1 H 264-FLUX 107 171
Shogun 2024 S01E07 A Stick of Time REPACK 1080p DSNP WEB-DL DDP5 1 H 264-FLUX 368 16
Shgun 2024 S01E07 A Stick of Time 1080p DSNP WEB-DL DDP5 1 H 264-NTb 14 8
Shōgun 2024 S01E07 A Stick of Time 1080p DSNP WEB-DL DDP5 1 H 264-NTb 2 158
Shogun 2024 S01E07 MULTI 1080p WEB H264-HiggsBoson 70 18

Shogun S01E07 - Chapter Seven: A Stick of Time

Summary:

Outplayed by new alliances in Osaka, Toranaga is forced to carve out a new deal with a long lost family member.



Shogun 2024 S01E07 A Stick of Time 720p DSNP WEB-DL DD 5 1 H 264-playWEB EZTV
Shogun S1E7 Screenshot


General
Unique ID: 56381343048609568711043550506005712812 (0x2A6AA6D509D7407918374FE572FE4FAC)
Complete name: Shogun 2024 S01E07 A Stick of Time 720p DSNP WEB-DL DD 5 1 H 264-playWEB.mkv
Format: Matroska
Format version: Version 4
File size: 1.26 GiB
Duration: 54 min 30 s
Overall bit rate mode: Variable
Overall bit rate: 3 317 kb/s
Frame rate: 24.000 FPS
Writing application: mkvmerge v83.0 ('Circle Of Friends') 64-bit
Writing library: libebml v1.4.5 + libmatroska v1.7.1

Video
ID: 1
Format: AVC
Format/Info: Advanced Video Codec
Format profile: [email protected]
Format settings: CABAC / 4 Ref Frames
Format settings, CABAC: Yes
Format settings, Reference frames: 4 frames
Codec ID: V_MPEG4/ISO/AVC
Duration: 54 min 30 s
Bit rate mode: Variable
Bit rate: 3 057 kb/s
Maximum bit rate: 6 375 kb/s
Width: 1 280 pixels
Height: 720 pixels
Display aspect ratio: 16:9
Frame rate mode: Constant
Frame rate: 24.000 FPS
Color space: YUV
Chroma subsampling: 4:2:0
Bit depth: 8 bits
Scan type: Progressive
Bits/(Pixel*Frame): 0.138
Time code of first frame: 00:00:00:0000000000
Stream size: 1.16 GiB (92%)
Default: Yes
Forced: No
Color range: Limited
Color primaries: BT.709
Transfer characteristics: BT.709
Matrix coefficients: BT.709

Audio
ID: 2
Format: E-AC-3
Format/Info: Enhanced AC-3
Commercial name: Dolby Digital Plus
Codec ID: A_EAC3
Duration: 54 min 30 s
Bit rate mode: Constant
Bit rate: 256 kb/s
Channel(s): 6 channels
Channel layout: L R C LFE Ls Rs
Sampling rate: 48.0 kHz
Frame rate: 31.250 FPS (1536 SPF)
Compression mode: Lossy
Stream size: 99.8 MiB (8%)
Language: English
Service kind: Complete Main
Default: Yes
Forced: No

Text #1
ID: 3
Format: UTF-8
Codec ID: S_TEXT/UTF8
Codec ID/Info: UTF-8 Plain Text
Duration: 52 min 20 s
Bit rate: 33 b/s
Frame rate: 0.138 FPS
Count of elements: 432
Stream size: 13.0 KiB (0%)
Title: Forced
Language: English
Default: Yes
Forced: Yes

Text #2
ID: 4
Format: UTF-8
Codec ID: S_TEXT/UTF8
Codec ID/Info: UTF-8 Plain Text
Duration: 54 min 10 s
Bit rate: 42 b/s
Frame rate: 0.143 FPS
Count of elements: 464
Stream size: 16.9 KiB (0%)
Language: Czech
Default: No
Forced: No

Text #3
ID: 5
Format: UTF-8
Codec ID: S_TEXT/UTF8
Codec ID/Info: UTF-8 Plain Text
Duration: 54 min 10 s
Bit rate: 38 b/s
Frame rate: 0.149 FPS
Count of elements: 485
Stream size: 15.1 KiB (0%)
Language: Danish
Default: No
Forced: No

Text #4
ID: 6
Format: UTF-8
Codec ID: S_TEXT/UTF8
Codec ID/Info: UTF-8 Plain Text
Duration: 54 min 10 s
Bit rate: 44 b/s
Frame rate: 0.148 FPS
Count of elements: 480
Stream size: 17.7 KiB (0%)
Language: German
Default: No
Forced: No

Text #5
ID: 7
Format: UTF-8
Codec ID: S_TEXT/UTF8
Codec ID/Info: UTF-8 Plain Text
Duration: 54 min 10 s
Bit rate: 69 b/s
Frame rate: 0.147 FPS
Count of elements: 477
Stream size: 27.6 KiB (0%)
Language: Greek
Default: No
Forced: No

Text #6
ID: 8
Format: UTF-8
Codec ID: S_TEXT/UTF8
Codec ID/Info: UTF-8 Plain Text
Duration: 52 min 22 s
Bit rate: 39 b/s
Frame rate: 0.155 FPS
Count of elements: 486
Stream size: 15.1 KiB (0%)
Language: English
Default: No
Forced: No

Text #7
ID: 9
Format: UTF-8
Codec ID: S_TEXT/UTF8
Codec ID/Info: UTF-8 Plain Text
Duration: 52 min 25 s
Bit rate: 44 b/s
Frame rate: 0.181 FPS
Count of elements: 568
Stream size: 17.2 KiB (0%)
Title: SDH
Language: English
Default: No
Forced: No

Text #8
ID: 10
Format: UTF-8
Codec ID: S_TEXT/UTF8
Codec ID/Info: UTF-8 Plain Text
Duration: 54 min 10 s
Bit rate: 39 b/s
Frame rate: 0.146 FPS
Count of elements: 474
Stream size: 15.7 KiB (0%)
Title: Latin American
Language: Spanish
Default: No
Forced: No

Text #9
ID: 11
Format: UTF-8
Codec ID: S_TEXT/UTF8
Codec ID/Info: UTF-8 Plain Text
Duration: 54 min 10 s
Bit rate: 40 b/s
Frame rate: 0.147 FPS
Count of elements: 477
Stream size: 16.2 KiB (0%)
Title: European
Language: Spanish
Default: No
Forced: No

Text #10
ID: 12
Format: UTF-8
Codec ID: S_TEXT/UTF8
Codec ID/Info: UTF-8 Plain Text
Duration: 54 min 10 s
Bit rate: 40 b/s
Frame rate: 0.144 FPS
Count of elements: 467
Stream size: 16.0 KiB (0%)
Language: Finnish
Default: No
Forced: No

Text #11
ID: 13
Format: UTF-8
Codec ID: S_TEXT/UTF8
Codec ID/Info: UTF-8 Plain Text
Duration: 54 min 10 s
Bit rate: 43 b/s
Frame rate: 0.144 FPS
Count of elements: 469
Stream size: 17.1 KiB (0%)
Title: European
Language: French
Default: No
Forced: No

Text #12
ID: 14
Format: UTF-8
Codec ID: S_TEXT/UTF8
Codec ID/Info: UTF-8 Plain Text
Duration: 54 min 10 s
Bit rate: 42 b/s
Frame rate: 0.147 FPS
Count of elements: 478
Stream size: 16.9 KiB (0%)
Language: Hungarian
Default: No
Forced: No

Text #13
ID: 15
Format: UTF-8
Codec ID: S_TEXT/UTF8
Codec ID/Info: UTF-8 Plain Text
Duration: 54 min 10 s
Bit rate: 39 b/s
Frame rate: 0.147 FPS
Count of elements: 479
Stream size: 15.8 KiB (0%)
Language: Italian
Default: No
Forced: No

Text #14
ID: 16
Format: UTF-8
Codec ID: S_TEXT/UTF8
Codec ID/Info: UTF-8 Plain Text
Duration: 52 min 25 s
Bit rate: 56 b/s
Frame rate: 0.191 FPS
Count of elements: 601
Stream size: 21.6 KiB (0%)
Language: Japanese
Default: No
Forced: No

Text #15
ID: 17
Format: UTF-8
Codec ID: S_TEXT/UTF8
Codec ID/Info: UTF-8 Plain Text
Duration: 52 min 25 s
Bit rate: 60 b/s
Frame rate: 0.196 FPS
Count of elements: 616
Stream size: 23.3 KiB (0%)
Title: SDH
Language: Japanese
Default: No
Forced: No

Text #16
ID: 18
Format: UTF-8
Codec ID: S_TEXT/UTF8
Codec ID/Info: UTF-8 Plain Text
Duration: 54 min 10 s
Bit rate: 48 b/s
Frame rate: 0.149 FPS
Count of elements: 485
Stream size: 19.2 KiB (0%)
Language: Korean
Default: No
Forced: No

Text #17
ID: 19
Format: UTF-8
Codec ID: S_TEXT/UTF8
Codec ID/Info: UTF-8 Plain Text
Duration: 54 min 10 s
Bit rate: 37 b/s
Frame rate: 0.147 FPS
Count of elements: 479
Stream size: 14.7 KiB (0%)
Language: Norwegian Bokmal
Default: No
Forced: No

Text #18
ID: 20
Format: UTF-8
Codec ID: S_TEXT/UTF8
Codec ID/Info: UTF-8 Plain Text
Duration: 54 min 10 s
Bit rate: 40 b/s
Frame rate: 0.124 FPS
Count of elements: 404
Stream size: 16.0 KiB (0%)
Language: Dutch
Default: No
Forced: No

Text #19
ID: 21
Format: UTF-8
Codec ID: S_TEXT/UTF8
Codec ID/Info: UTF-8 Plain Text
Duration: 54 min 10 s
Bit rate: 40 b/s
Frame rate: 0.146 FPS
Count of elements: 474
Stream size: 16.1 KiB (0%)
Language: Polish
Default: No
Forced: No

Text #20
ID: 22
Format: UTF-8
Codec ID: S_TEXT/UTF8
Codec ID/Info: UTF-8 Plain Text
Duration: 54 min 10 s
Bit rate: 38 b/s
Frame rate: 0.144 FPS
Count of elements: 469
Stream size: 15.4 KiB (0%)
Title: Brazilian
Language: Portuguese
Default: No
Forced: No

Text #21
ID: 23
Format: UTF-8
Codec ID: S_TEXT/UTF8
Codec ID/Info: UTF-8 Plain Text
Duration: 54 min 10 s
Bit rate: 40 b/s
Frame rate: 0.149 FPS
Count of elements: 485
Stream size: 16.0 KiB (0%)
Title: European
Language: Portuguese
Default: No
Forced: No

Text #22
ID: 24
Format: UTF-8
Codec ID: S_TEXT/UTF8
Codec ID/Info: UTF-8 Plain Text
Duration: 54 min 10 s
Bit rate: 40 b/s
Frame rate: 0.128 FPS
Count of elements: 417
Stream size: 16.1 KiB (0%)
Language: Romanian
Default: No
Forced: No

Text #23
ID: 25
Format: UTF-8
Codec ID: S_TEXT/UTF8
Codec ID/Info: UTF-8 Plain Text
Duration: 54 min 10 s
Bit rate: 38 b/s
Frame rate: 0.148 FPS
Count of elements: 481
Stream size: 15.2 KiB (0%)
Language: Slovak
Default: No
Forced: No

Text #24
ID: 26
Format: UTF-8
Codec ID: S_TEXT/UTF8
Codec ID/Info: UTF-8 Plain Text
Duration: 54 min 10 s
Bit rate: 38 b/s
Frame rate: 0.138 FPS
Count of elements: 450
Stream size: 15.3 KiB (0%)
Language: Swedish
Default: No
Forced: No

Text #25
ID: 27
Format: UTF-8
Codec ID: S_TEXT/UTF8
Codec ID/Info: UTF-8 Plain Text
Duration: 54 min 10 s
Bit rate: 41 b/s
Frame rate: 0.149 FPS
Count of elements: 483
Stream size: 16.3 KiB (0%)
Language: Turkish
Default: No
Forced: No

Text #26
ID: 28
Format: UTF-8
Codec ID: S_TEXT/UTF8
Codec ID/Info: UTF-8 Plain Text
Duration: 54 min 10 s
Bit rate: 35 b/s
Frame rate: 0.149 FPS
Count of elements: 485
Stream size: 14.3 KiB (0%)
Title: Traditional
Language: Chinese
Default: No
Forced: No

Menu
00:00:09.083: en:Recap
00:00:58.042: en:Scene 1
00:04:18.042: en:Intro
00:05:15.583: en:Scene 2
00:52:58.542: en:Credits
ssl  EZTV RSS EZTV Status | EZTV API | DMCA: [email protected]