eztv.tf | eztvstatus.org
Search title:  
TV Packs only
 

Your Dream Kitchen for Less S01E03 1080p My5 WEB-DL AAC2 0 H 264-NTb EZTV

Episode Breakdown
Your Dream Kitchen for Less
Your Dream Kitchen for Less TV Show S01E03

Season: 1
Episode: 3
Air Date: 25 January, 2024
Download Links
     Torrent Download     Magnet Download
     Anonymous Download
Added 2 months ago by eztv (verified).
Tracker Statistics
Seeds: 1
Peers: 2
Stats generated @ 00:04 on 21st Jun 2024
Torrent Info
Torrent File: Your Dream Kitchen for Less S01E03 1080p My5 WEB-DL AAC2 0 H 264-NTb[EZTVx.to].mkv
Torrent Hash: CD9B46EB8330D97F638CD3C49AB33048AF907912
Filesize: 1.88 GB
Released: 28th Mar 2024

File Format: MKV (Matroska)
Resolution: 1920x1080 px
Aspect Ratio: 16:9
Alternate Releases S L
Your Dream Kitchen For Less S01E03 1080p WEB H264-CBFM 0 1

Your Dream Kitchen for Less S01E03 - Episode 3

Summary:

Mark Millar helps a Somerset couple who want a stylish, contemporary twist on a period kitchen that's also accessible for their daughter who uses a wheelchair. And in Cheshire he assists a couple who have taken on a fixer-upper dream of a five-star luxury bathroom, but what they've currently got is a death trap.



Your Dream Kitchen for Less S01E03 1080p My5 WEB-DL AAC2 0 H 264-NTb EZTV
Your Dream Kitchen for Less S1E3 Screenshot


General
Unique ID: 238517445077122699452432820749027856296 (0xB370C9FA27157D637EC2487BC2A94FA8)
Complete name: Your Dream Kitchen for Less S01E03 1080p My5 WEB-DL AAC2 0 H 264-NTb.mkv
Format: Matroska
Format version: Version 4
File size: 1.88 GiB
Duration: 44 min 12 s
Overall bit rate: 6 084 kb/s
Frame rate: 25.000 FPS
Writing application: mkvmerge v81.0 ('Milliontown') 64-bit
Writing library: libebml v1.4.4 + libmatroska v1.7.1

Video
ID: 1
Format: AVC
Format/Info: Advanced Video Codec
Format profile: High@L4
Format settings: CABAC / 4 Ref Frames
Format settings, CABAC: Yes
Format settings, Reference frames: 4 frames
Codec ID: V_MPEG4/ISO/AVC
Duration: 44 min 12 s
Bit rate mode: Constant
Bit rate: 6 000 kb/s
Width: 1 920 pixels
Height: 1 080 pixels
Display aspect ratio: 16:9
Frame rate mode: Constant
Frame rate: 25.000 FPS
Color space: YUV
Chroma subsampling: 4:2:0
Bit depth: 8 bits
Scan type: Progressive
Bits/(Pixel*Frame): 0.116
Stream size: 1.85 GiB (98%)
Default: Yes
Forced: No
Color range: Limited

Audio
ID: 2
Format: AAC LC
Format/Info: Advanced Audio Codec Low Complexity
Codec ID: A_AAC-2
Duration: 44 min 12 s
Bit rate: 96.0 kb/s
Channel(s): 2 channels
Channel layout: L R
Sampling rate: 48.0 kHz
Frame rate: 46.875 FPS (1024 SPF)
Compression mode: Lossy
Stream size: 30.4 MiB (2%)
Title: English
Language: English
Default: Yes
Forced: No

Text
ID: 3
Format: UTF-8
Codec ID: S_TEXT/UTF8
Codec ID/Info: UTF-8 Plain Text
Duration: 43 min 42 s
Bit rate: 107 b/s
Frame rate: 0.321 FPS
Count of elements: 843
Stream size: 34.4 KiB (0%)
Title: English
Language: English
Default: No
Forced: No
ssl  EZTV RSS EZTV Status | EZTV API | DMCA: [email protected]