eztv.tf | eztvstatus.org
Search title:  
TV Packs only
 

ARK The Animated Series S01E03 Element 3 1080p AMZN WEB-DL DDP5 1 H 264-NTb EZTV

Episode Breakdown
Ark: The Animated Series
Ark: The Animated Series TV Show S01E03

Season: 1
Episode: 3
Download Links
     Torrent Download     Magnet Download
     Anonymous Download
Added 2 months ago by eztv (verified).
Tracker Statistics
Seeds: 10
Peers: 2
Stats generated @ 16:38 on 26th May 2024
Torrent Info
Torrent File: ARK The Animated Series S01E03 Element 3 1080p AMZN WEB-DL DDP5 1 H 264-NTb[EZTVx.to].mkv
Torrent Hash: CD8258EDD37B211EA2F9A4F2F32EA463971EE367
Filesize: 1.12 GB
Released: 21st Mar 2024

File Format: MKV (Matroska)
Resolution: 1920x1080 px
Aspect Ratio: 16:9

Episode Description
ARK The Animated Series S01E03 Element 3 1080p AMZN WEB-DL DDP5 1 H 264-NTb EZTV
Ark: The Animated Series S1E3 Screenshot


General
Unique ID: 219765586011425561588301418606464687022 (0xA5554FF1E0DE16090EB6C0C83E555BAE)
Complete name: ARK The Animated Series S01E03 Element 3 1080p AMZN WEB-DL DDP5 1 H 264-NTb.mkv
Format: Matroska
Format version: Version 4
File size: 1.12 GiB
Duration: 26 min 33 s
Overall bit rate: 6 053 kb/s
Frame rate: 23.976 FPS
Writing application: mkvmerge v80.0 ('Roundabout') 64-bit
Writing library: libebml v1.4.4 + libmatroska v1.7.1

Video
ID: 1
Format: AVC
Format/Info: Advanced Video Codec
Format profile: High@L4
Format settings: CABAC / 4 Ref Frames
Format settings, CABAC: Yes
Format settings, Reference frames: 4 frames
Codec ID: V_MPEG4/ISO/AVC
Duration: 26 min 33 s
Bit rate mode: Constant
Bit rate: 5 411 kb/s
Nominal bit rate: 10 000 kb/s
Width: 1 920 pixels
Height: 1 080 pixels
Display aspect ratio: 16:9
Frame rate mode: Constant
Frame rate: 23.976 (24000/1001) FPS
Color space: YUV
Chroma subsampling: 4:2:0
Bit depth: 8 bits
Scan type: Progressive
Bits/(Pixel*Frame): 0.109
Stream size: 1.00 GiB (89%)
Default: Yes
Forced: No
Color range: Limited
Color primaries: BT.709
Transfer characteristics: BT.709
Matrix coefficients: BT.709

Audio
ID: 2
Format: E-AC-3
Format/Info: Enhanced AC-3
Commercial name: Dolby Digital Plus
Codec ID: A_EAC3
Duration: 26 min 33 s
Bit rate mode: Constant
Bit rate: 640 kb/s
Channel(s): 6 channels
Channel layout: L R C LFE Ls Rs
Sampling rate: 48.0 kHz
Frame rate: 31.250 FPS (1536 SPF)
Compression mode: Lossy
Stream size: 122 MiB (11%)
Language: English (US)
Service kind: Complete Main
Default: Yes
Forced: No

Text #1
ID: 3
Format: UTF-8
Codec ID: S_TEXT/UTF8
Codec ID/Info: UTF-8 Plain Text
Duration: 24 min 49 s
Bit rate: 38 b/s
Frame rate: 0.154 FPS
Count of elements: 229
Stream size: 6.96 KiB (0%)
Language: English (US)
Default: No
Forced: No

Text #2
ID: 4
Format: UTF-8
Codec ID: S_TEXT/UTF8
Codec ID/Info: UTF-8 Plain Text
Duration: 26 min 28 s
Bit rate: 59 b/s
Frame rate: 0.242 FPS
Count of elements: 384
Stream size: 11.5 KiB (0%)
Title: SDH
Language: English (US)
Default: No
Forced: No

ssl  EZTV RSS EZTV Status | EZTV API | DMCA: [email protected]