eztv.tf | eztvstatus.org
Search title:  
TV Packs only
 

LTNS S01E01 2024 1080p friDay WEB-DL H264 AAC-ADWeb EZTV

Episode Breakdown
LTNS
LTNS TV Show S01E01

Season: 1
Episode: 1
Air Date: 19 January, 2024
Download Links
     Torrent Download     Magnet Download
     Anonymous Download
Added 3 months ago by eztv (verified).
Tracker Statistics
Seeds: 5
Peers: 2
Stats generated @ 19:31 on 12th Jun 2024
Torrent Info
Torrent File: LTNS.S01E01.2024.1080p.friDay.WEB-DL.H264.AAC-ADWeb[EZTVx.to].mkv
Torrent Hash: C39E5E2C7EAE0E1909C400AFFF38FDFF67CD1B7E
Filesize: 3.12 GB
Released: 9th Mar 2024

File Format: MKV (Matroska)
Resolution: 1920x1080 px
Aspect Ratio: 16:9

LTNS S01E01 - Only Up to Two Loves Are Allowed

Summary:

Woo-jin and Samuel used to be deeply in love and very passionate about each other. However, after being married for a long time, the days of burning with sexual desire are long gone, and they become a sexless couple. One day, Samuel finds out his friend, Jung-soo, is having an affair. Woo-jin insists on telling Se-yeon about the truth.



LTNS S01E01 2024 1080p friDay WEB-DL H264 AAC-ADWeb EZTV
LTNS S1E1 Screenshot


General
Unique ID: 296328981183968170742684076417104260849 (0xDEEEE2C570A9674D6400160762D0AEF1)
Complete name: LTNS.S01E01.2024.1080p.friDay.WEB-DL.H264.AAC-ADWeb.mkv
Format: Matroska
Format version: Version 4
File size: 3.12 GiB
Duration: 57 min 38 s
Overall bit rate: 7 743 kb/s
Frame rate: 29.970 FPS
Encoded date: 2024-01-20 10:22:40 UTC
Writing application: mkvmerge v81.0 ('Milliontown') 64-bit
Writing library: libebml v1.4.4 + libmatroska v1.7.1

Video
ID: 1
Format: AVC
Format/Info: Advanced Video Codec
Format profile: [email protected]
Format settings: CABAC / 1 Ref Frames
Format settings, CABAC: Yes
Format settings, Reference frames: 1 frame
Format settings, GOP: M=1, N=60
Codec ID: V_MPEG4/ISO/AVC
Duration: 57 min 38 s
Bit rate mode: Constant
Bit rate: 7 614 kb/s
Nominal bit rate: 8 000 kb/s
Width: 1 920 pixels
Height: 1 080 pixels
Display aspect ratio: 16:9
Frame rate mode: Constant
Frame rate: 29.970 (30000/1001) FPS
Color space: YUV
Chroma subsampling: 4:2:0
Bit depth: 8 bits
Scan type: Progressive
Bits/(Pixel*Frame): 0.123
Stream size: 3.07 GiB (98%)
Language: English
Default: Yes
Forced: No

Audio
ID: 2
Format: AAC LC
Format/Info: Advanced Audio Codec Low Complexity
Codec ID: A_AAC-2
Duration: 57 min 38 s
Bit rate: 125 kb/s
Channel(s): 2 channels
Channel layout: L R
Sampling rate: 48.0 kHz
Frame rate: 46.875 FPS (1024 SPF)
Compression mode: Lossy
Stream size: 51.7 MiB (2%)
Language: Korean
Default: Yes
Forced: No

Text #1
ID: 3
Format: UTF-8
Codec ID: S_TEXT/UTF8
Codec ID/Info: UTF-8 Plain Text
Duration: 54 min 29 s
Bit rate: 57 b/s
Frame rate: 0.279 FPS
Count of elements: 913
Stream size: 23.1 KiB (0%)
Title: t S+ S
Language: Chinese
Default: No
Forced: No

Text #2
ID: 4
Format: UTF-8
Codec ID: S_TEXT/UTF8
Codec ID/Info: UTF-8 Plain Text
Duration: 54 min 29 s
Bit rate: 57 b/s
Frame rate: 0.279 FPS
Count of elements: 913
Stream size: 23.1 KiB (0%)
Title: t S+ S
Language: Chinese
Default: No
Forced: No

ssl  EZTV RSS EZTV Status | EZTV API | DMCA: [email protected]