eztv.tf | eztvstatus.org
Search title:  
TV Packs only
 

Lia Sotia Sotului Meu S03E17E18 720p ANTP WEB-DL AAC2 0 H 264-playWEB EZTV

Episode Breakdown
Lia - Sotia sotului meu
Lia - Sotia sotului meu TV Show S03E17

Season: 3
Episode: 17
Air Date: 7 March, 2024
Download Links
     Torrent Download     Magnet Download
     Anonymous Download
Added 3 months ago by eztv (verified).
Tracker Statistics
Seeds: 0
Peers: 0
Stats generated @ 00:02 on 21st Jun 2024
Torrent Info
Torrent File: Lia.Sotia.Sotului.Meu.S03E17E18.720p.ANTP.WEB-DL.AAC2.0.H.264-playWEB[EZTVx.to].mkv
Torrent Hash: 8459C3D57B415FB3E90173F9F577E1634750AFC4
Filesize: 1.25 GB
Released: 8th Mar 2024

File Format: MKV (Matroska)
Resolution: 1280x720 px
Aspect Ratio: 16:9

Lia - Sotia sotului meu S03E17 - Episodul 97: Iubire ascunsă

Summary:
Lia Sotia Sotului Meu S03E17E18 720p ANTP WEB-DL AAC2 0 H 264-playWEB EZTV
Lia - Sotia sotului meu S3E17 Screenshot


General
Unique ID: 180735378038989869646898739620153171808 (0x87F85E1ECE06AA86DAF920DB45449F60)
Complete name: Lia.Sotia.Sotului.Meu.S03E17E18.720p.ANTP.WEB-DL.AAC2.0.H.264-playWEB.mkv
Format: Matroska
Format version: Version 4
File size: 1.25 GiB
Duration: 2 h 3 min
Overall bit rate: 1 448 kb/s
Frame rate: 25.000 FPS
Writing application: mkvmerge v82.0 ('I'm The President') 64-bit
Writing library: libebml v1.4.5 + libmatroska v1.7.1

Video
ID: 1
Format: AVC
Format/Info: Advanced Video Codec
Format profile: [email protected]
Format settings: CABAC / 4 Ref Frames
Format settings, CABAC: Yes
Format settings, Reference frames: 4 frames
Format settings, GOP: M=4, N=50
Codec ID: V_MPEG4/ISO/AVC
Duration: 2 h 3 min
Bit rate: 1 253 kb/s
Width: 1 280 pixels
Height: 720 pixels
Display aspect ratio: 16:9
Frame rate mode: Constant
Frame rate: 25.000 FPS
Color space: YUV
Chroma subsampling: 4:2:0
Bit depth: 8 bits
Scan type: Progressive
Bits/(Pixel*Frame): 0.054
Stream size: 1.08 GiB (87%)
Writing library: x264 core 161 r3015 4c2aafd
Encoding settings: cabac=1 / ref=3 / deblock=1:0:0 / analyse=0x3:0x113 / me=hex / subme=7 / psy=1 / psy_rd=1.00:0.00 / mixed_ref=1 / me_range=16 / chroma_me=1 / trellis=1 / 8x8dct=1 / cqm=0 / deadzone=21,11 / fast_pskip=1 / chroma_qp_offset=-2 / threads=18 / lookahead_threads=3 / sliced_threads=0 / nr=0 / decimate=1 / interlaced=0 / bluray_compat=0 / constrained_intra=0 / bframes=3 / b_pyramid=2 / b_adapt=1 / b_bias=0 / direct=1 / weightb=1 / open_gop=0 / weightp=2 / keyint=250 / keyint_min=25 / scenecut=40 / intra_refresh=0 / rc_lookahead=40 / rc=crf / mbtree=1 / crf=23.0 / qcomp=0.60 / qpmin=0 / qpmax=69 / qpstep=4 / ip_ratio=1.40 / aq=1:1.00
Default: Yes
Forced: No

Audio
ID: 2
Format: AAC LC
Format/Info: Advanced Audio Codec Low Complexity
Codec ID: A_AAC-2
Duration: 2 h 3 min
Bit rate: 192 kb/s
Channel(s): 2 channels
Channel layout: L R
Sampling rate: 48.0 kHz
Frame rate: 46.875 FPS (1024 SPF)
Compression mode: Lossy
Delay relative to video: -80 ms
Stream size: 171 MiB (13%)
Language: Romanian
Default: Yes
Forced: No

ssl  EZTV RSS EZTV Status | EZTV API | DMCA: [email protected]