eztv.tf | eztvstatus.org
Search title:  
TV Packs only
 

Dragons Den S20E07 1080p iP WEB-DL AAC2 0 H 264-NION EZTV

Episode Breakdown
Dragons' Den
Dragons' Den TV Show S20E07

Season: 20
Episode: 7
Download Links
     Torrent Download     Magnet Download
     Anonymous Download
Added 3 months ago by eztv (verified).
Tracker Statistics
Seeds: 0
Peers: 0
Stats generated @ 20:31 on 12th Jun 2024
Torrent Info
Torrent File: Dragons.Den.S20E07.1080p.iP.WEB-DL.AAC2.0.H.264-NION[EZTVx.to].mkv
Torrent Hash: 12C424872BD06D1EAE7F07BF4BC9ADD67970AE5A
Filesize: 2.51 GB
Released: 26th Feb 2024

File Format: MKV (Matroska)
Resolution: 1920x1080 px
Aspect Ratio: 16:9

Episode Description
Dragons Den S20E07 1080p iP WEB-DL AAC2 0 H 264-NION EZTV
Dragons' Den S20E7 Screenshot


General
Unique ID: 87743871468493571197352878594185067263 (0x4202DADDFCDAA3E1C1CBB33A83117AFF)
Complete name: Dragons.Den.S20E07.1080p.iP.WEB-DL.AAC2.0.H.264-NION.mkv
Format: Matroska
Format version: Version 4
File size: 2.51 GiB
Duration: 58 min 10 s
Overall bit rate mode: Variable
Overall bit rate: 6 179 kb/s
Frame rate: 50.000 FPS
Movie name: Dragons Den S20E07
Track name/Position: 07
Track name/Total: 14
Description: Aspiring entrepreneurs have one chance to make their dreams come true when they pitch their business idea to five multimillionaire investors. It's make or break time
Released date: 2023-02-16
Encoded date: 2023-03-06 10:04:52 UTC
Writing application: mkvmerge v69.0.0 ('Day And Age') 64-bit
Writing library: libebml v1.4.2 + libmatroska v1.6.4
Comment: NioN
Attachments: Thumbnail
IMDB: tt0443370
SYNOPSIS: DragonsG Den continues as fearsome investors Peter Jones, Deborah Meaden, Touker Suleyman, Sara Davies and Steven Bartlett take their seats in the den, and a fresh batch of entrepreneurs go where many fear to tread. / Tonight, live music in the Den is music to the Dragons' ears, but mushroom snacks with an impressive crunch prove too noisy for one investor. The entrepreneur behind portable toilets for kids hopes to flush away any doubts of success, and will it be second time lucky as a sustainable clothing entrepreneur returns to the Den for a second time?
TMDB: tv/13678
TVDB: 79836

Video
ID: 2
Format: AVC
Format/Info: Advanced Video Codec
Format profile: [email protected]
Format settings: CABAC / 4 Ref Frames
Format settings, CABAC: Yes
Format settings, Reference frames: 4 frames
Codec ID: V_MPEG4/ISO/AVC
Duration: 58 min 10 s
Bit rate mode: Variable
Bit rate: 6 046 kb/s
Maximum bit rate: 12.0 Mb/s
Width: 1 920 pixels
Height: 1 080 pixels
Display aspect ratio: 16:9
Frame rate mode: Constant
Frame rate: 50.000 FPS
Color space: YUV
Chroma subsampling: 4:2:0
Bit depth: 8 bits
Scan type: Progressive
Bits/(Pixel*Frame): 0.058
Stream size: 2.46 GiB (98%)
Language: English
Default: Yes
Forced: No
Color range: Limited
Color primaries: BT.709
Transfer characteristics: BT.709
Matrix coefficients: BT.709

Audio
ID: 1
Format: AAC LC
Format/Info: Advanced Audio Codec Low Complexity
Codec ID: A_AAC-2
Duration: 58 min 10 s
Bit rate: 128 kb/s
Channel(s): 2 channels
Channel layout: L R
Sampling rate: 48.0 kHz
Frame rate: 46.875 FPS (1024 SPF)
Compression mode: Lossy
Stream size: 53.3 MiB (2%)
Language: English
Default: Yes
Forced: No

Text #1
ID: 3
Format: UTF-8
Codec ID: S_TEXT/UTF8
Codec ID/Info: UTF-8 Plain Text
Duration: 57 min 37 s
Bit rate: 107 b/s
Frame rate: 0.333 FPS
Count of elements: 1153
Stream size: 45.4 KiB (0%)
Title: English plain srt
Language: English
Default: No
Forced: No

Text #2
ID: 4
Format: UTF-8
Codec ID: S_TEXT/UTF8
Codec ID/Info: UTF-8 Plain Text
Duration: 57 min 37 s
Bit rate: 246 b/s
Frame rate: 0.333 FPS
Count of elements: 1153
Stream size: 104 KiB (0%)
Title: English srt
Language: English
Default: No
Forced: No
ssl  EZTV RSS EZTV Status | EZTV API | DMCA: [email protected]