eztv.tf | eztvstatus.org
Search title:  
TV Packs only
 

Reverie S01E07 The Black Mandala 1080p AMZN WEB-DL DDP5 1 H 264-NTb EZTV

Episode Breakdown
Planetarian: The Reverie of a Little Planet
Planetarian: The Reverie of a Little Planet TV Show S01E07

Season: 1
Episode: 7
Download Links
     Torrent Download     Magnet Download
     Anonymous Download
Added 5 months ago by eztv (verified).
Tracker Statistics
Seeds: 1
Peers: 0
Stats generated @ 20:04 on 12th Jun 2024
Torrent Info
Torrent File: Reverie.S01E07.The.Black.Mandala.1080p.AMZN.WEB-DL.DDP5.1.H.264-NTb[EZTVx.to].mkv
Torrent Hash: 7FBF140EB749CB04A4665A56567517EF21CE2B77
Filesize: 1.79 GB
Released: 15th Dec 2023

File Format: MKV (Matroska)
Resolution: 1920x1080 px
Aspect Ratio: 16:9

Episode Description
Reverie S01E07 The Black Mandala 1080p AMZN WEB-DL DDP5 1 H 264-NTb EZTV
Planetarian: The Reverie of a Little Planet S1E7 Screenshot


General
Unique ID: 246891355890736310432011950877287539840 (0xB9BD8BA7FCC2D1A2A2CAD1FAB1FA6480)
Complete name: Reverie.S01E07.The.Black.Mandala.1080p.AMZN.WEB-DL.DDP5.1.H.264-NTb.mkv
Format: Matroska
Format version: Version 4
File size: 1.79 GiB
Duration: 43 min 2 s
Overall bit rate: 5 943 kb/s
Frame rate: 23.976 FPS
Encoded date: 2018-07-19 14:30:06 UTC
Writing application: mkvmerge v13.0.0 ('The Juggler') 64bit
Writing library: libebml v1.3.4 + libmatroska v1.4.5

Video
ID: 1
Format: AVC
Format/Info: Advanced Video Codec
Format profile: High@L4
Format settings: CABAC / 4 Ref Frames
Format settings, CABAC: Yes
Format settings, Reference frames: 4 frames
Codec ID: V_MPEG4/ISO/AVC
Duration: 43 min 2 s
Bit rate: 5 301 kb/s
Width: 1 920 pixels
Height: 1 080 pixels
Display aspect ratio: 16:9
Frame rate mode: Constant
Frame rate: 23.976 (24000/1001) FPS
Color space: YUV
Chroma subsampling: 4:2:0
Bit depth: 8 bits
Scan type: Progressive
Bits/(Pixel*Frame): 0.107
Stream size: 1.59 GiB (89%)
Default: Yes
Forced: No
Color range: Limited
Color primaries: BT.709
Transfer characteristics: BT.709
Matrix coefficients: BT.709

Audio
ID: 2
Format: E-AC-3
Format/Info: Enhanced AC-3
Commercial name: Dolby Digital Plus
Codec ID: A_EAC3
Duration: 43 min 2 s
Bit rate mode: Constant
Bit rate: 640 kb/s
Channel(s): 6 channels
Channel layout: L R C LFE Ls Rs
Sampling rate: 48.0 kHz
Frame rate: 31.250 FPS (1536 SPF)
Compression mode: Lossy
Stream size: 197 MiB (11%)
Language: English
Service kind: Complete Main
Default: Yes
Forced: No

Text #1
ID: 3
Format: UTF-8
Codec ID: S_TEXT/UTF8
Codec ID/Info: UTF-8 Plain Text
Duration: 42 min 31 s
Bit rate: 78 b/s
Frame rate: 0.339 FPS
Count of elements: 866
Stream size: 24.6 KiB (0%)
Language: English
Default: No
Forced: No

Text #2
ID: 4
Format: UTF-8
Codec ID: S_TEXT/UTF8
Codec ID/Info: UTF-8 Plain Text
Duration: 42 min 31 s
Bit rate: 87 b/s
Frame rate: 0.401 FPS
Count of elements: 1024
Stream size: 27.3 KiB (0%)
Title: SDH
Language: English
Default: No
Forced: No

ssl  EZTV RSS EZTV Status | EZTV API | DMCA: [email protected]