eztv.tf | eztvstatus.org
Search title:  
TV Packs only
 

Krapopolis S01E09 Dungeons and Deliria 1080p HULU WEB-DL DDP5 1 H 264-NTb EZTV

Episode Breakdown
Krapopolis
Krapopolis TV Show S01E09

Season: 1
Episode: 9
Air Date: 19 November, 2023
Download Links
     Torrent Download     Magnet Download
     Anonymous Download
Added 3 months ago by eztv (verified).
Tracker Statistics
Seeds: 1
Peers: 8
Stats generated @ 09:57 on 21st Feb 2024
Torrent Info
Torrent File: Krapopolis.S01E09.Dungeons.and.Deliria.1080p.HULU.WEB-DL.DDP5.1.H.264-NTb[eztv.re].mkv
Torrent Hash: 166A85D5B2DDFE152259531D26C290A7742B6094
Filesize: 485 MB
Released: 21st Nov 2023

File Format: MKV (Matroska)
Resolution: 1920x1080 px
Aspect Ratio: 16:9
Alternate Releases S L
Krapopolis S01E09 720p WEB h264-BAE 6 9
Krapopolis S01E09 1080p WEB h264-BAE 23 6
Krapopolis S01E09 720p HEVC x265-MeGusta 8 3
Krapopolis S01E09 480p x264-mSD 5 8
Krapopolis S01E09 XviD-AFG 4 5
Krapopolis S01E09 720p x264-FENiX 1 11
Krapopolis S01E09 720p x265-T0PAZ 0 2

Krapopolis S01E09 - Dungeons and Deliria

Summary:

Tyrannis struggles with a ruling dilemma when a citizen is ejected from a bar for wearing newly invented pants. Meanwhile, Deliria wreaks havoc on Stupendous' secret quest, only to end up in trouble with a titan. While hunting a monster, Hippocampus ends up sparring with a tree nymph.



Krapopolis S01E09 Dungeons and Deliria 1080p HULU WEB-DL DDP5 1 H 264-NTb EZTV
Krapopolis S1E9 Screenshot


General
Unique ID: 25328192781348495334170265187566491848 (0x130E08515C9905A98C89B12DB65C18C8)
Complete name: Krapopolis.S01E09.Dungeons.and.Deliria.1080p.HULU.WEB-DL.DDP5.1.H.264-NTb.mkv
Format: Matroska
Format version: Version 4
File size: 485 MiB
Duration: 21 min 38 s
Overall bit rate: 3 134 kb/s
Frame rate: 23.976 FPS
Writing application: mkvmerge v80.0 ('Roundabout') 64-bit
Writing library: libebml v1.4.4 + libmatroska v1.7.1

Video
ID: 1
Format: AVC
Format/Info: Advanced Video Codec
Format profile: High@L4
Format settings: CABAC / 4 Ref Frames
Format settings, CABAC: Yes
Format settings, Reference frames: 4 frames
Codec ID: V_MPEG4/ISO/AVC
Duration: 21 min 38 s
Bit rate: 2 875 kb/s
Width: 1 920 pixels
Height: 1 080 pixels
Display aspect ratio: 16:9
Frame rate mode: Constant
Frame rate: 23.976 (24000/1001) FPS
Color space: YUV
Chroma subsampling: 4:2:0
Bit depth: 8 bits
Scan type: Progressive
Bits/(Pixel*Frame): 0.058
Stream size: 445 MiB (92%)
Default: Yes
Forced: No

Audio
ID: 2
Format: E-AC-3
Format/Info: Enhanced AC-3
Commercial name: Dolby Digital Plus
Codec ID: A_EAC3
Duration: 21 min 38 s
Bit rate mode: Constant
Bit rate: 256 kb/s
Channel(s): 6 channels
Channel layout: L R C LFE Ls Rs
Sampling rate: 48.0 kHz
Frame rate: 31.250 FPS (1536 SPF)
Compression mode: Lossy
Stream size: 39.6 MiB (8%)
Language: English
Service kind: Complete Main
Default: Yes
Forced: No

Text #1
ID: 3
Format: UTF-8
Codec ID: S_TEXT/UTF8
Codec ID/Info: UTF-8 Plain Text
Duration: 21 min 34 s
Bit rate: 107 b/s
Frame rate: 0.447 FPS
Count of elements: 578
Stream size: 17.0 KiB (0%)
Language: English
Default: No
Forced: No

Text #2
ID: 4
Format: UTF-8
Codec ID: S_TEXT/UTF8
Codec ID/Info: UTF-8 Plain Text
Duration: 21 min 34 s
Bit rate: 115 b/s
Frame rate: 0.488 FPS
Count of elements: 632
Stream size: 18.3 KiB (0%)
Title: SDH
Language: English
Default: No
Forced: No

Menu
00:00:00.000: en:Chapter 1
00:07:12.017: en:Chapter 2
00:16:00.021: en:Chapter 3
00:20:44.017: en:Chapter 4

ssl  EZTV RSS EZTV Status | EZTV API | DMCA: [email protected]