eztv.tf | eztvstatus.org
Search title:  
TV Packs only
 

Last Week Tonight with John Oliver S10E18 November 19 2023 Dollar Stores 1080p AMZN WEB-DL DDP2 0 H 264-NTb EZTV

Episode Breakdown
Last Week Tonight with John Oliver
Last Week Tonight with John Oliver TV Show S10E18

Season: 10
Episode: 18
Air Date: 19 November, 2023
Download Links
     Torrent Download     Magnet Download
     Anonymous Download
Added 3 months ago by eztv (verified).
Tracker Statistics
Seeds: 20
Peers: 2
Stats generated @ 10:17 on 21st Feb 2024
Torrent Info
Torrent File: Last.Week.Tonight.with.John.Oliver.S10E18.November.19.2023.Dollar.Stores.1080p.AMZN.WEB-DL.DDP2.0.H.264-NTb[eztv.re].mkv
Torrent Hash: E8C723FBC38BD168D44D378B0D02E74435D8BCDC
Filesize: 2.76 GB
Released: 21st Nov 2023

File Format: MKV (Matroska)
Resolution: 1920x1080 px
Aspect Ratio: 16:9
Alternate Releases S L
Last Week Tonight with John Oliver S10E18 720p WEB h264-EDITH 46 4
Last Week Tonight with John Oliver S10E18 480p x264-mSD 18 4
Last Week Tonight with John Oliver S10E18 1080p WEB h264-EDITH 138 9
Last Week Tonight with John Oliver S10E18 720p HEVC x265-MeGusta 39 6
Last Week Tonight with John Oliver S10E18 XviD-AFG 4 3
Last Week Tonight with John Oliver S10E18 1080p HEVC x265-MeGusta 18 2

Last Week Tonight with John Oliver S10E18 - Dollar Stores

Summary:

John Oliver discusses dollar stores and why Irish Spring is not his soap of choice. 



Last Week Tonight with John Oliver S10E18 November 19 2023 Dollar Stores 1080p AMZN WEB-DL DDP2 0 H 264-NTb EZTV
Last Week Tonight with John Oliver S10E18 Screenshot


General
Unique ID: 41822189011062728048358222081012802253 (0x1F76A91E1AFF5EBF26F6AB3E613822CD)
Complete name: Last.Week.Tonight.with.John.Oliver.S10E18.November.19.2023.Dollar.Stores.1080p.AMZN.WEB-DL.DDP2.0.H.264-NTb.mkv
Format: Matroska
Format version: Version 4
File size: 2.76 GiB
Duration: 39 min 26 s
Overall bit rate: 10.0 Mb/s
Frame rate: 29.970 FPS
Writing application: mkvmerge v79.0 ('Funeral Pyres') 64-bit
Writing library: libebml v1.4.4 + libmatroska v1.7.1

Video
ID: 1
Format: AVC
Format/Info: Advanced Video Codec
Format profile: High@L4
Format settings: CABAC / 4 Ref Frames
Format settings, CABAC: Yes
Format settings, Reference frames: 4 frames
Codec ID: V_MPEG4/ISO/AVC
Duration: 39 min 26 s
Bit rate mode: Constant
Bit rate: 10 000 kb/s
Width: 1 920 pixels
Height: 1 080 pixels
Display aspect ratio: 16:9
Frame rate mode: Constant
Frame rate: 29.970 (30000/1001) FPS
Color space: YUV
Chroma subsampling: 4:2:0
Bit depth: 8 bits
Scan type: Progressive
Bits/(Pixel*Frame): 0.161
Stream size: 2.69 GiB (98%)
Default: Yes
Forced: No
Color range: Limited
Color primaries: BT.709
Transfer characteristics: BT.709
Matrix coefficients: BT.709

Audio
ID: 2
Format: E-AC-3
Format/Info: Enhanced AC-3
Commercial name: Dolby Digital Plus
Codec ID: A_EAC3
Duration: 39 min 26 s
Bit rate mode: Constant
Bit rate: 224 kb/s
Channel(s): 2 channels
Channel layout: L R
Sampling rate: 48.0 kHz
Frame rate: 31.250 FPS (1536 SPF)
Compression mode: Lossy
Stream size: 63.2 MiB (2%)
Language: English (US)
Service kind: Complete Main
Default: Yes
Forced: No

Text #1
ID: 3
Format: UTF-8
Codec ID: S_TEXT/UTF8
Codec ID/Info: UTF-8 Plain Text
Duration: 38 min 54 s
Bit rate: 120 b/s
Frame rate: 0.615 FPS
Count of elements: 1436
Stream size: 34.4 KiB (0%)
Language: English (US)
Default: No
Forced: No

Text #2
ID: 4
Format: UTF-8
Codec ID: S_TEXT/UTF8
Codec ID/Info: UTF-8 Plain Text
Duration: 39 min 16 s
Bit rate: 123 b/s
Frame rate: 0.626 FPS
Count of elements: 1474
Stream size: 35.4 KiB (0%)
Title: SDH
Language: English (US)
Default: No
Forced: No

ssl  EZTV RSS EZTV Status | EZTV API | DMCA: [email protected]