eztv.tf | eztvstatus.org
Search title:  
TV Packs only
 

Married to Medicine S10E03 Pamper Party Crasher 1080p AMZN WEB-DL DDP2 0 H 264-NTb EZTV

Episode Breakdown
Married to Medicine
Married to Medicine TV Show S10E03

Season: 10
Episode: 3
Air Date: 19 November, 2023
Download Links
     Torrent Download     Magnet Download
     Anonymous Download
Added 16 days ago by eztv (verified).
Tracker Statistics
Seeds: 2
Peers: 2
Stats generated @ 01:27 on 7th Dec 2023
Torrent Info
Torrent File: Married.to.Medicine.S10E03.Pamper.Party.Crasher.1080p.AMZN.WEB-DL.DDP2.0.H.264-NTb[eztv.re].mkv
Torrent Hash: ACC4CE1B57E0923BAAE40B7B7E7FE1D4B89A6F38
Filesize: 2.96 GB
Released: 20th Nov 2023

File Format: MKV (Matroska)
Resolution: 1920x1080 px
Aspect Ratio: 16:9
Alternate Releases S L
Married to Medicine S10E03 1080p WEB h264-EDITH 4 3
Married to Medicine S10E03 720p WEB h264-EDITH 5 3
Married to Medicine S10E03 480p x264-mSD 20 1
Married to Medicine S10E03 XviD-AFG 4 0
Married to Medicine S10E03 1080p HEVC x265-MeGusta 3 2

Married to Medicine S10E03 - Pamper Party Crasher

Summary:

Dr. Simone drops a truth bomb on her sons on a family night out; the guys take Dr. G out for the bachelor party of a lifetime; the ladies give Sweet Tea an over-the-top bachelorette party that ends with an unexpected visitor.



Married to Medicine S10E03 Pamper Party Crasher 1080p AMZN WEB-DL DDP2 0 H 264-NTb EZTV
Married to Medicine S10E3 Screenshot


General
Unique ID: 65909613437040621489117739785545735396 (0x3195BAD519708667E816167445865CE4)
Complete name: Married.to.Medicine.S10E03.Pamper.Party.Crasher.1080p.AMZN.WEB-DL.DDP2.0.H.264-NTb.mkv
Format: Matroska
Format version: Version 4
File size: 2.96 GiB
Duration: 43 min 5 s
Overall bit rate: 9 825 kb/s
Frame rate: 23.976 FPS
Writing application: mkvmerge v78.0 ('Running') 64-bit
Writing library: libebml v1.4.4 + libmatroska v1.7.1

Video
ID: 1
Format: AVC
Format/Info: Advanced Video Codec
Format profile: High@L4
Format settings: CABAC / 4 Ref Frames
Format settings, CABAC: Yes
Format settings, Reference frames: 4 frames
Codec ID: V_MPEG4/ISO/AVC
Duration: 43 min 5 s
Bit rate mode: Constant
Bit rate: 10 000 kb/s
Width: 1 920 pixels
Height: 1 080 pixels
Display aspect ratio: 16:9
Frame rate mode: Constant
Frame rate: 23.976 (24000/1001) FPS
Color space: YUV
Chroma subsampling: 4:2:0
Bit depth: 8 bits
Scan type: Progressive
Bits/(Pixel*Frame): 0.201
Stream size: 2.89 GiB (98%)
Default: Yes
Forced: No
Color range: Limited
Color primaries: BT.709
Transfer characteristics: BT.709
Matrix coefficients: BT.709

Audio
ID: 2
Format: E-AC-3
Format/Info: Enhanced AC-3
Commercial name: Dolby Digital Plus
Codec ID: A_EAC3
Duration: 43 min 5 s
Bit rate mode: Constant
Bit rate: 224 kb/s
Channel(s): 2 channels
Channel layout: L R
Sampling rate: 48.0 kHz
Frame rate: 31.250 FPS (1536 SPF)
Compression mode: Lossy
Stream size: 69.0 MiB (2%)
Language: English (US)
Service kind: Complete Main
Default: Yes
Forced: No

Text #1
ID: 3
Format: UTF-8
Codec ID: S_TEXT/UTF8
Codec ID/Info: UTF-8 Plain Text
Duration: 42 min 59 s
Bit rate: 108 b/s
Frame rate: 0.388 FPS
Count of elements: 1002
Stream size: 34.1 KiB (0%)
Language: English (US)
Default: No
Forced: No

Text #2
ID: 4
Format: UTF-8
Codec ID: S_TEXT/UTF8
Codec ID/Info: UTF-8 Plain Text
Duration: 42 min 59 s
Bit rate: 110 b/s
Frame rate: 0.405 FPS
Count of elements: 1044
Stream size: 34.6 KiB (0%)
Title: SDH
Language: English (US)
Default: No
Forced: No

ssl  EZTV RSS EZTV Status | EZTV API | DMCA: [email protected]