eztv.tf | eztvstatus.org
Search title:  
TV Packs only
 

Bachelor in Paradise S09E08 1080p AMZN WEB-DL DDP2 0 H 264-NTb EZTV

Episode Breakdown
Bachelor in Paradise
Bachelor in Paradise TV Show S09E08

Season: 9
Episode: 8
Air Date: 16 November, 2023
Download Links
     Torrent Download     Magnet Download
     Anonymous Download
Added 16 days ago by eztv (verified).
Tracker Statistics
Seeds: 11
Peers: 6
Stats generated @ 01:47 on 7th Dec 2023
Torrent Info
Torrent File: Bachelor.in.Paradise.S09E08.1080p.AMZN.WEB-DL.DDP2.0.H.264-NTb[eztv.re].mkv
Torrent Hash: B02640D0AF603839A4018DC4079BD18136586154
Filesize: 5.90 GB
Released: 20th Nov 2023

File Format: MKV (Matroska)
Resolution: 1920x1080 px
Aspect Ratio: 16:9
Alternate Releases S L
Bachelor In Paradise S09E08 480p x264-mSD 28 11
Bachelor In Paradise S09E08 720p HEVC x265-MeGusta 10 7
Bachelor In Paradise S09E08 720p WEB h264-EDITH 11 5
Bachelor In Paradise S09E08 XviD-AFG 9 2

Bachelor in Paradise S09E08 - Week 8

Summary:

A new wave of arrivals turn up the heat in Paradise; Blake's former flame Katie Thurston arrives.

 


 



Bachelor in Paradise S09E08 1080p AMZN WEB-DL DDP2 0 H 264-NTb EZTV
Bachelor in Paradise S9E8 Screenshot


General
Unique ID: 302924274127175440149181601513191104680 (0xE3E517D19F4240DE9A00C69CEBA1E0A8)
Complete name: Bachelor.in.Paradise.S09E08.1080p.AMZN.WEB-DL.DDP2.0.H.264-NTb.mkv
Format: Matroska
Format version: Version 4
File size: 5.90 GiB
Duration: 1 h 23 min
Overall bit rate mode: Constant
Overall bit rate: 10.1 Mb/s
Frame rate: 23.976 FPS
Writing application: mkvmerge v78.0 ('Running') 64-bit
Writing library: libebml v1.4.4 + libmatroska v1.7.1

Video
ID: 1
Format: AVC
Format/Info: Advanced Video Codec
Format profile: High@L4
Format settings: CABAC / 4 Ref Frames
Format settings, CABAC: Yes
Format settings, Reference frames: 4 frames
Codec ID: V_MPEG4/ISO/AVC
Duration: 1 h 23 min
Bit rate mode: Constant
Bit rate: 10 000 kb/s
Width: 1 920 pixels
Height: 1 080 pixels
Display aspect ratio: 16:9
Frame rate mode: Constant
Frame rate: 23.976 (24000/1001) FPS
Color space: YUV
Chroma subsampling: 4:2:0
Bit depth: 8 bits
Scan type: Progressive
Bits/(Pixel*Frame): 0.201
Stream size: 5.77 GiB (98%)
Default: Yes
Forced: No
Color range: Limited
Color primaries: BT.709
Transfer characteristics: BT.709
Matrix coefficients: BT.709

Audio
ID: 2
Format: E-AC-3
Format/Info: Enhanced AC-3
Commercial name: Dolby Digital Plus
Codec ID: A_EAC3
Duration: 1 h 23 min
Bit rate mode: Constant
Bit rate: 224 kb/s
Channel(s): 2 channels
Channel layout: L R
Sampling rate: 48.0 kHz
Frame rate: 31.250 FPS (1536 SPF)
Compression mode: Lossy
Stream size: 134 MiB (2%)
Language: English (US)
Service kind: Complete Main
Default: Yes
Forced: No

ssl  EZTV RSS EZTV Status | EZTV API | DMCA: [email protected]