eztv.tf | eztvstatus.org
Search title:  
TV Packs only
 

Rick and Morty S07E06 Rickfending Your Mort 1080p HMAX WEB-DL DD5 1 x264-NTb EZTV

Episode Breakdown
Rick And Morty
Rick And Morty TV Show S07E06

Season: 7
Episode: 6
Air Date: 19 November, 2023
Download Links
     Torrent Download     Magnet Download
     Anonymous Download
Added 3 months ago by eztv (verified).
Tracker Statistics
Seeds: 38
Peers: 1
Stats generated @ 10:27 on 21st Feb 2024
Torrent Info
Torrent File: 7c3cde48b7574f4a8d1c0f1e268ddcba[eztv.re].mkv
Torrent Hash: 58BD6383564D7D8470678DF6B07B45C4061EEB5A
Filesize: 1.33 GB
Released: 20th Nov 2023

File Format: MKV (Matroska)
Resolution: 1920x1080 px
Aspect Ratio: 16:9
Alternate Releases S L
Rick and Morty S07E06 720p WEB H264-NHTFS 244 14
Rick and Morty S07E06 1080p WEB H264-NHTFS 199 11
Rick and Morty S07E06 480p x264-mSD 12 9
Rick and Morty S07E06 720p HEVC x265-MeGusta 26 4
Rick and Morty S07E06 MULTI 1080p WEB H264-HiggsBoson 16 3
Rick and Morty S07E06 XviD-AFG 14 3
Rick and Morty S07E06 720p x264-FENiX 7 4

Rick And Morty S07E06 - Rickfending Your Mort

Summary:

As the mind-bending animated adventures continue, Morty gets audited.



Rick and Morty S07E06 Rickfending Your Mort 1080p HMAX WEB-DL DD5 1 x264-NTb EZTV
Rick And Morty S7E6 Screenshot


General
Unique ID: 236173174772972959218289970092251639939 (0xB1AD4C870B95090161B3672128AD7083)
Complete name: 7c3cde48b7574f4a8d1c0f1e268ddcba.mkv
Format: Matroska
Format version: Version 4
File size: 1.33 GiB
Duration: 22 min 16 s
Overall bit rate mode: Variable
Overall bit rate: 8 537 kb/s
Frame rate: 23.976 FPS
Writing application: mkvmerge v80.0 ('Roundabout') 64-bit
Writing library: libebml v1.4.4 + libmatroska v1.7.1

Video
ID: 1
Format: AVC
Format/Info: Advanced Video Codec
Format profile: High@L4
Format settings: CABAC / 4 Ref Frames
Format settings, CABAC: Yes
Format settings, Reference frames: 4 frames
Codec ID: V_MPEG4/ISO/AVC
Duration: 22 min 16 s
Bit rate mode: Variable
Bit rate: 8 250 kb/s
Maximum bit rate: 12.4 Mb/s
Width: 1 920 pixels
Height: 1 080 pixels
Display aspect ratio: 16:9
Frame rate mode: Constant
Frame rate: 23.976 (24000/1001) FPS
Color space: YUV
Chroma subsampling: 4:2:0
Bit depth: 8 bits
Scan type: Progressive
Bits/(Pixel*Frame): 0.166
Stream size: 1.27 GiB (95%)
Writing library: x264 core 157 r2965 861cec4
Encoding settings: cabac=1 / ref=4 / deblock=1:0:0 / analyse=0x3:0x113 / me=hex / subme=7 / psy=1 / psy_rd=1.00:0.00 / mixed_ref=1 / me_range=16 / chroma_me=1 / trellis=1 / 8x8dct=1 / cqm=0 / deadzone=21,11 / fast_pskip=1 / chroma_qp_offset=-2 / threads=34 / lookahead_threads=5 / sliced_threads=0 / nr=0 / decimate=1 / interlaced=0 / bluray_compat=0 / constrained_intra=0 / bframes=3 / b_pyramid=2 / b_adapt=1 / b_bias=0 / direct=1 / weightb=1 / open_gop=0 / weightp=2 / keyint=96 / keyint_min=96 / scenecut=40 / intra_refresh=0 / rc_lookahead=40 / rc=2pass / mbtree=1 / bitrate=8250 / ratetol=1.0 / qcomp=0.60 / qpmin=0 / qpmax=69 / qpstep=4 / cplxblur=20.0 / qblur=0.5 / vbv_maxrate=12375 / vbv_bufsize=6187 / nal_hrd=vbr / filler=0 / ip_ratio=1.40 / aq=1:1.00
Default: Yes
Forced: No
Color range: Limited
Color primaries: BT.709
Transfer characteristics: BT.709
Matrix coefficients: BT.709

Audio
ID: 2
Format: AC-3
Format/Info: Audio Coding 3
Commercial name: Dolby Digital
Codec ID: A_AC3
Duration: 22 min 16 s
Bit rate mode: Constant
Bit rate: 384 kb/s
Channel(s): 6 channels
Channel layout: L R C LFE Ls Rs
Sampling rate: 48.0 kHz
Frame rate: 31.250 FPS (1536 SPF)
Compression mode: Lossy
Stream size: 61.2 MiB (4%)
Language: English (US)
Service kind: Complete Main
Default: Yes
Forced: No

Text #1
ID: 3
Format: UTF-8
Codec ID: S_TEXT/UTF8
Codec ID/Info: UTF-8 Plain Text
Duration: 21 min 56 s
Bit rate: 104 b/s
Frame rate: 0.305 FPS
Count of elements: 401
Stream size: 16.9 KiB (0%)
Language: English (US)
Default: No
Forced: No

Text #2
ID: 4
Format: UTF-8
Codec ID: S_TEXT/UTF8
Codec ID/Info: UTF-8 Plain Text
Duration: 22 min 7 s
Bit rate: 107 b/s
Frame rate: 0.427 FPS
Count of elements: 566
Stream size: 17.5 KiB (0%)
Title: SDH
Language: English (US)
Default: No
Forced: No

Text #3
ID: 5
Format: UTF-8
Codec ID: S_TEXT/UTF8
Codec ID/Info: UTF-8 Plain Text
Duration: 22 min 8 s
Bit rate: 153 b/s
Frame rate: 0.249 FPS
Count of elements: 331
Stream size: 24.9 KiB (0%)
Language: Bulgarian (BG)
Default: No
Forced: No

Text #4
ID: 6
Format: UTF-8
Codec ID: S_TEXT/UTF8
Codec ID/Info: UTF-8 Plain Text
Duration: 22 min 4 s
Bit rate: 103 b/s
Frame rate: 0.318 FPS
Count of elements: 422
Stream size: 16.7 KiB (0%)
Language: Czech (CZ)
Default: No
Forced: No

Text #5
ID: 7
Format: UTF-8
Codec ID: S_TEXT/UTF8
Codec ID/Info: UTF-8 Plain Text
Duration: 22 min 7 s
Bit rate: 78 b/s
Frame rate: 0.210 FPS
Count of elements: 279
Stream size: 12.8 KiB (0%)
Language: Danish (DK)
Default: No
Forced: No

Text #6
ID: 8
Format: UTF-8
Codec ID: S_TEXT/UTF8
Codec ID/Info: UTF-8 Plain Text
Duration: 22 min 1 s
Bit rate: 105 b/s
Frame rate: 0.347 FPS
Count of elements: 459
Stream size: 17.1 KiB (0%)
Title: Spanish (Latin America)
Language: Spanish (Latin America)
Default: No
Forced: No

Text #7
ID: 9
Format: UTF-8
Codec ID: S_TEXT/UTF8
Codec ID/Info: UTF-8 Plain Text
Duration: 22 min 1 s
Bit rate: 105 b/s
Frame rate: 0.337 FPS
Count of elements: 445
Stream size: 17.0 KiB (0%)
Title: Spanish (Spain)
Language: Spanish (ES)
Default: No
Forced: No

Text #8
ID: 10
Format: UTF-8
Codec ID: S_TEXT/UTF8
Codec ID/Info: UTF-8 Plain Text
Duration: 22 min 4 s
Bit rate: 83 b/s
Frame rate: 0.250 FPS
Count of elements: 331
Stream size: 13.5 KiB (0%)
Language: Finnish (FI)
Default: No
Forced: No

Text #9
ID: 11
Format: UTF-8
Codec ID: S_TEXT/UTF8
Codec ID/Info: UTF-8 Plain Text
Duration: 22 min 3 s
Bit rate: 91 b/s
Frame rate: 0.240 FPS
Count of elements: 318
Stream size: 14.9 KiB (0%)
Language: Croatian (HR)
Default: No
Forced: No

Text #10
ID: 12
Format: UTF-8
Codec ID: S_TEXT/UTF8
Codec ID/Info: UTF-8 Plain Text
Duration: 22 min 7 s
Bit rate: 107 b/s
Frame rate: 0.316 FPS
Count of elements: 419
Stream size: 17.4 KiB (0%)
Language: Hungarian (HU)
Default: No
Forced: No

Text #11
ID: 13
Format: UTF-8
Codec ID: S_TEXT/UTF8
Codec ID/Info: UTF-8 Plain Text
Duration: 22 min 3 s
Bit rate: 154 b/s
Frame rate: 0.240 FPS
Count of elements: 318
Stream size: 24.9 KiB (0%)
Language: Macedonian (MK)
Default: No
Forced: No

Text #12
ID: 14
Format: UTF-8
Codec ID: S_TEXT/UTF8
Codec ID/Info: UTF-8 Plain Text
Duration: 22 min 4 s
Bit rate: 89 b/s
Frame rate: 0.243 FPS
Count of elements: 322
Stream size: 14.5 KiB (0%)
Language: Dutch (NL)
Default: No
Forced: No

Text #13
ID: 15
Format: UTF-8
Codec ID: S_TEXT/UTF8
Codec ID/Info: UTF-8 Plain Text
Duration: 22 min 4 s
Bit rate: 91 b/s
Frame rate: 0.249 FPS
Count of elements: 330
Stream size: 14.8 KiB (0%)
Language: Norwegian (NO)
Default: No
Forced: No

Text #14
ID: 16
Format: UTF-8
Codec ID: S_TEXT/UTF8
Codec ID/Info: UTF-8 Plain Text
Duration: 22 min 1 s
Bit rate: 97 b/s
Frame rate: 0.294 FPS
Count of elements: 388
Stream size: 15.7 KiB (0%)
Language: Polish (PL)
Default: No
Forced: No

Text #15
ID: 17
Format: UTF-8
Codec ID: S_TEXT/UTF8
Codec ID/Info: UTF-8 Plain Text
Duration: 22 min 1 s
Bit rate: 107 b/s
Frame rate: 0.295 FPS
Count of elements: 390
Stream size: 17.4 KiB (0%)
Title: Portuguese (Brazil)
Language: Portuguese (BR)
Default: No
Forced: No

Text #16
ID: 18
Format: UTF-8
Codec ID: S_TEXT/UTF8
Codec ID/Info: UTF-8 Plain Text
Duration: 22 min 4 s
Bit rate: 96 b/s
Frame rate: 0.256 FPS
Count of elements: 339
Stream size: 15.6 KiB (0%)
Title: Portuguese (Portugal)
Language: Portuguese (PT)
Default: No
Forced: No

Text #17
ID: 19
Format: UTF-8
Codec ID: S_TEXT/UTF8
Codec ID/Info: UTF-8 Plain Text
Duration: 22 min 1 s
Bit rate: 93 b/s
Frame rate: 0.295 FPS
Count of elements: 390
Stream size: 15.0 KiB (0%)
Language: Romanian (RO)
Default: No
Forced: No

Text #18
ID: 20
Format: UTF-8
Codec ID: S_TEXT/UTF8
Codec ID/Info: UTF-8 Plain Text
Duration: 22 min 3 s
Bit rate: 88 b/s
Frame rate: 0.240 FPS
Count of elements: 318
Stream size: 14.4 KiB (0%)
Language: Slovenian (SI)
Default: No
Forced: No

Text #19
ID: 21
Format: UTF-8
Codec ID: S_TEXT/UTF8
Codec ID/Info: UTF-8 Plain Text
Duration: 22 min 3 s
Bit rate: 90 b/s
Frame rate: 0.240 FPS
Count of elements: 318
Stream size: 14.7 KiB (0%)
Language: Serbian-Latn-RS
Default: No
Forced: No

Text #20
ID: 22
Format: UTF-8
Codec ID: S_TEXT/UTF8
Codec ID/Info: UTF-8 Plain Text
Duration: 22 min 5 s
Bit rate: 99 b/s
Frame rate: 0.254 FPS
Count of elements: 336
Stream size: 16.1 KiB (0%)
Language: Swedish (SE)
Default: No
Forced: No

Menu
00:00:00.000: en:Chapter 1
00:01:44.104: en:Intro
00:02:14.927: en:Chapter 2
00:21:17.000: en:Credits

ssl  EZTV RSS EZTV Status | EZTV API | DMCA: [email protected]