eztv.tf | eztvstatus.org
Search title:  
TV Packs only
 

Planet Earth III S01E05 Forests 720p iP WEB-DL AAC2 0 H 264-NTb EZTV

Episode Breakdown
Planet Earth III
Planet Earth III TV Show S01E05

Season: 1
Episode: 5
Air Date: 19 November, 2023
Download Links
     Torrent Download     Magnet Download
     Anonymous Download
Added 3 months ago by eztv (verified).
Tracker Statistics
Seeds: 2
Peers: 1
Stats generated @ 08:53 on 21st Feb 2024
Torrent Info
Torrent File: Planet.Earth.III.S01E05.Forests.720p.iP.WEB-DL.AAC2.0.H.264-NTb[eztv.re].mkv
Torrent Hash: B26A7E9D2845E589B6D0BF5AD66A612A06B992D8
Filesize: 2.11 GB
Released: 19th Nov 2023

File Format: MKV (Matroska)
Resolution: 1280x720 px
Aspect Ratio: 16:9
Alternate Releases S L
Planet Earth III S01E05 Forests 1080p IP WEB-DL H264 AAC2 0 SNAKE 41 6
Planet Earth III S01E05 Forests 1080p iP WEB-DL AAC2 0 H 264-NTb 3 1
Planet Earth III S01E05 1080p HDTV H264-DARKFLiX 4 1
Planet Earth III S01E05 XviD-AFG 4 1
Planet Earth III S01E05 720p x264-FENiX 2 1
Planet Earth III S01E05 720p x265-T0PAZ 4 0
Planet Earth III S01E05 1080p x265-ELiTE 3 2

Planet Earth III S01E05 - Forests

Summary:

Sir David Attenborough journeys into the forests, where dogs communicate with whistles, treehoppers fight assassin bugs, ‘spirit bears' fish, and hornbills imprison themselves in trees.



Planet Earth III S01E05 Forests 720p iP WEB-DL AAC2 0 H 264-NTb EZTV
Planet Earth III S1E5 Screenshot


General
Unique ID: 266805052828827998812787099704367650668 (0xC8B8C8B7DF98DA728FB0F3881996176C)
Complete name: Planet.Earth.III.S01E05.Forests.720p.iP.WEB-DL.AAC2.0.H.264-NTb.mkv
Format: Matroska
Format version: Version 4
File size: 2.11 GiB
Duration: 57 min 37 s
Overall bit rate mode: Variable
Overall bit rate: 5 242 kb/s
Frame rate: 50.000 FPS
Writing application: mkvmerge v79.0 ('Funeral Pyres') 64-bit
Writing library: libebml v1.4.4 + libmatroska v1.7.1

Video
ID: 1
Format: AVC
Format/Info: Advanced Video Codec
Format profile: [email protected]
Format settings: CABAC / 4 Ref Frames
Format settings, CABAC: Yes
Format settings, Reference frames: 4 frames
Codec ID: V_MPEG4/ISO/AVC
Duration: 57 min 37 s
Bit rate mode: Variable
Bit rate: 5 049 kb/s
Maximum bit rate: 7 605 kb/s
Width: 1 280 pixels
Height: 720 pixels
Display aspect ratio: 16:9
Frame rate mode: Constant
Frame rate: 50.000 FPS
Standard: Component
Color space: YUV
Chroma subsampling: 4:2:0
Bit depth: 8 bits
Scan type: Progressive
Bits/(Pixel*Frame): 0.110
Stream size: 2.03 GiB (96%)
Default: Yes
Forced: No
Color range: Limited
Color primaries: BT.709
Transfer characteristics: BT.709
Matrix coefficients: BT.709

Audio
ID: 2
Format: AAC LC
Format/Info: Advanced Audio Codec Low Complexity
Codec ID: A_AAC-2
Duration: 57 min 37 s
Bit rate: 192 kb/s
Channel(s): 2 channels
Channel layout: L R
Sampling rate: 48.0 kHz
Frame rate: 46.875 FPS (1024 SPF)
Compression mode: Lossy
Stream size: 78.1 MiB (4%)
Language: English
Default: Yes
Forced: No

Text #1
ID: 3
Format: UTF-8
Codec ID: S_TEXT/UTF8
Codec ID/Info: UTF-8 Plain Text
Duration: 56 min 25 s
Bit rate: 34 b/s
Frame rate: 0.117 FPS
Count of elements: 396
Stream size: 14.3 KiB (0%)
Language: English
Default: No
Forced: No

Text #2
ID: 4
Format: UTF-8
Codec ID: S_TEXT/UTF8
Codec ID/Info: UTF-8 Plain Text
Duration: 56 min 25 s
Bit rate: 36 b/s
Frame rate: 0.134 FPS
Count of elements: 452
Stream size: 15.2 KiB (0%)
Title: SDH
Language: English
Default: No
Forced: No

ssl  EZTV RSS EZTV Status | EZTV API | DMCA: [email protected]