eztv.tf | eztvstatus.org
Search title:  
TV Packs only
 

Monarch Legacy of Monsters S01E02 720p x264-FENiX EZTV

Episode Breakdown
Monarch: Legacy of Monsters
Monarch: Legacy of Monsters TV Show S01E02

Season: 1
Episode: 2
Air Date: 17 November, 2023
Download Links
     Torrent Download     Magnet Download
     Anonymous Download
Added 3 months ago by eztv (verified).
Tracker Statistics
Seeds: 9
Peers: 14
Stats generated @ 16:57 on 21st Feb 2024
Torrent Info
Torrent File: Monarch.Legacy.of.Monsters.S01E02.720p.x264-FENiX[eztv.re].mkv
Torrent Hash: B4509368CDC478143FE5802739DC6CCE698BA10D
Filesize: 518 MB
Released: 17th Nov 2023

File Format: MKV (Matroska)
Resolution: 1280x720 px
Aspect Ratio: 16:9
Alternate Releases S L
Monarch Legacy of Monsters S01E02 1080p WEB H264-GloriousMongoose 102 29
Monarch Legacy of Monsters S01E02 480p x264-mSD 22 23
Monarch Legacy of Monsters S01E02 720p WEB h264-ETHEL 34 28
Monarch Legacy of Monsters S01E02 MULTI 1080p WEB H264-ANESSE 7 12
Monarch Legacy of Monsters S01E02 720p HEVC x265-MeGusta 27 12
Monarch Legacy of Monsters S01E02 1080p x265-ELiTE 25 15
Monarch Legacy of Monsters S01E02 720p x265-T0PAZ 9 13

Monarch: Legacy of Monsters S01E02 - Departure

Summary:

Monarch closes in on Cate, Kentaro, and May as they try to track down a key individual. Keiko, Lee, and Billy stumble on a major find.



Monarch Legacy of Monsters S01E02 720p x264-FENiX EZTV
Monarch: Legacy of Monsters S1E2 Screenshot


General
Unique ID: 4317516870928103092108137766224039075 (0x33F8604461256F2A6ED321580E68CA3)
Complete name: Monarch.Legacy.of.Monsters.S01E02.720p.x264-FENiX.mkv
Format: Matroska
Format version: Version 4
File size: 518 MiB
Duration: 46 min 18 s
Overall bit rate: 1 564 kb/s
Movie name: Monarch.Legacy.of.Monsters.S01E02
Writing application: Lavf59.16.100
Writing library: Lavf59.16.100
Comment: FENiX-Fri-17-Nov-2023,03:18:55,720p,23,fast,9836495,1,0
ErrorDetectionType: Per level 1

Video
ID: 1
Format: AVC
Format/Info: Advanced Video Codec
Format profile: [email protected]
Format settings: CABAC / 4 Ref Frames
Format settings, CABAC: Yes
Format settings, Reference frames: 4 frames
Codec ID: V_MPEG4/ISO/AVC
Duration: 46 min 18 s
Bit rate: 1 084 kb/s
Width: 1 280 pixels
Height: 720 pixels
Display aspect ratio: 16:9
Frame rate mode: Variable
Color space: YUV
Chroma subsampling: 4:2:0
Bit depth: 8 bits
Scan type: Progressive
Stream size: 359 MiB (69%)
Writing library: x264 core 163
Encoding settings: cabac=1 / ref=2 / deblock=1:0:0 / analyse=0x3:0x113 / me=hex / subme=6 / psy=1 / psy_rd=1.00:0.00 / mixed_ref=1 / me_range=16 / chroma_me=1 / trellis=1 / 8x8dct=1 / cqm=0 / deadzone=21,11 / fast_pskip=1 / chroma_qp_offset=-2 / threads=22 / lookahead_threads=3 / sliced_threads=0 / nr=0 / decimate=1 / interlaced=0 / bluray_compat=0 / constrained_intra=0 / bframes=3 / b_pyramid=2 / b_adapt=1 / b_bias=0 / direct=1 / weightb=1 / open_gop=0 / weightp=1 / keyint=250 / keyint_min=23 / scenecut=40 / intra_refresh=0 / rc_lookahead=30 / rc=crf / mbtree=1 / crf=23.0 / qcomp=0.60 / qpmin=0 / qpmax=69 / qpstep=4 / ip_ratio=1.40 / aq=1:1.00
Default: Yes
Forced: No
Color range: Limited
Color primaries: BT.709
Transfer characteristics: BT.709
Matrix coefficients: BT.709

Audio
ID: 2
Format: AC-3
Format/Info: Audio Coding 3
Commercial name: Dolby Digital
Codec ID: A_AC3
Duration: 46 min 18 s
Bit rate mode: Constant
Bit rate: 448 kb/s
Channel(s): 6 channels
Channel layout: L R C LFE Ls Rs
Sampling rate: 48.0 kHz
Frame rate: 31.250 FPS (1536 SPF)
Bit depth: 32 bits
Compression mode: Lossy
Stream size: 148 MiB (29%)
Writing library: Lavc59.18.100 ac3
Language: English
Service kind: Complete Main
Default: Yes
Forced: No

Text #1
ID: 3
Format: UTF-8
Codec ID: S_TEXT/UTF8
Codec ID/Info: UTF-8 Plain Text
Duration: 38 min 45 s
Language: English
Default: No
Forced: Yes

Text #2
ID: 4
Format: UTF-8
Codec ID: S_TEXT/UTF8
Codec ID/Info: UTF-8 Plain Text
Duration: 44 min 50 s
Language: English
Default: No
Forced: No

ssl  EZTV RSS EZTV Status | EZTV API | DMCA: [email protected]