eztv.tf | eztvstatus.org
Search title:  
TV Packs only
 

Monarch Legacy of Monsters S01E01 720p x264-FENiX EZTV

Episode Breakdown
Monarch: Legacy of Monsters
Monarch: Legacy of Monsters TV Show S01E01

Season: 1
Episode: 1
Air Date: 17 November, 2023
Download Links
     Torrent Download     Magnet Download
     Anonymous Download
Added 7 months ago by eztv (verified).
Tracker Statistics
Seeds: 1
Peers: 2
Stats generated @ 00:48 on 15th Jul 2024
Torrent Info
Torrent File: Monarch.Legacy.of.Monsters.S01E01.720p.x264-FENiX[eztv.re].mkv
Torrent Hash: D2DAE6770A540139571FF9F7EB7BAA54315EEF34
Filesize: 570 MB
Released: 17th Nov 2023

File Format: MKV (Matroska)
Resolution: 1280x720 px
Aspect Ratio: 16:9
Alternate Releases S L
Monarch Legacy of Monsters S01E01 1080p WEB H264-GloriousMongoose 44 12
Monarch Legacy of Monsters S01E01 720p WEB h264-ETHEL 10 2
Monarch Legacy of Monsters S01E01 720p HEVC x265-MeGusta 9 9
Monarch Legacy of Monsters S01E01 480p x264-mSD 6 1
Monarch Legacy of Monsters S01E01 720p x265-T0PAZ 6 1
Monarch Legacy of Monsters S01E01 1080p x265-ELiTE 10 1
Monarch Legacy of Monsters S01E01 Aftermath 1080p ATVP WEB-DL DDP5 1 H 264-NTb 17 6

Monarch: Legacy of Monsters S01E01 - Aftermath

Summary:

Cate travels to Japan to get answers about her father and uncovers a shocking secret. Keiko, Lee, and Billy pursue a theory about Titans.



Monarch Legacy of Monsters S01E01 720p x264-FENiX EZTV
Monarch: Legacy of Monsters S1E1 Screenshot


General
Unique ID: 151211371427250111990783577348669553718 (0x71C240358040225F657C62CE3F95BC36)
Complete name: Monarch.Legacy.of.Monsters.S01E01.720p.x264-FENiX.mkv
Format: Matroska
Format version: Version 4
File size: 570 MiB
Duration: 49 min 48 s
Overall bit rate: 1 599 kb/s
Movie name: Monarch.Legacy.of.Monsters.S01E01
Writing application: Lavf59.16.100
Writing library: Lavf59.16.100
Comment: FENiX-Fri-17-Nov-2023,03:15:21,720p,23,fast,9807418,1,0
ErrorDetectionType: Per level 1

Video
ID: 1
Format: AVC
Format/Info: Advanced Video Codec
Format profile: [email protected]
Format settings: CABAC / 4 Ref Frames
Format settings, CABAC: Yes
Format settings, Reference frames: 4 frames
Codec ID: V_MPEG4/ISO/AVC
Duration: 49 min 48 s
Bit rate: 1 119 kb/s
Width: 1 280 pixels
Height: 720 pixels
Display aspect ratio: 16:9
Frame rate mode: Variable
Color space: YUV
Chroma subsampling: 4:2:0
Bit depth: 8 bits
Scan type: Progressive
Stream size: 399 MiB (70%)
Writing library: x264 core 163
Encoding settings: cabac=1 / ref=2 / deblock=1:0:0 / analyse=0x3:0x113 / me=hex / subme=6 / psy=1 / psy_rd=1.00:0.00 / mixed_ref=1 / me_range=16 / chroma_me=1 / trellis=1 / 8x8dct=1 / cqm=0 / deadzone=21,11 / fast_pskip=1 / chroma_qp_offset=-2 / threads=22 / lookahead_threads=3 / sliced_threads=0 / nr=0 / decimate=1 / interlaced=0 / bluray_compat=0 / constrained_intra=0 / bframes=3 / b_pyramid=2 / b_adapt=1 / b_bias=0 / direct=1 / weightb=1 / open_gop=0 / weightp=1 / keyint=250 / keyint_min=23 / scenecut=40 / intra_refresh=0 / rc_lookahead=30 / rc=crf / mbtree=1 / crf=23.0 / qcomp=0.60 / qpmin=0 / qpmax=69 / qpstep=4 / ip_ratio=1.40 / aq=1:1.00
Default: Yes
Forced: No
Color range: Limited
Color primaries: BT.709
Transfer characteristics: BT.709
Matrix coefficients: BT.709

Audio
ID: 2
Format: AC-3
Format/Info: Audio Coding 3
Commercial name: Dolby Digital
Codec ID: A_AC3
Duration: 49 min 48 s
Bit rate mode: Constant
Bit rate: 448 kb/s
Channel(s): 6 channels
Channel layout: L R C LFE Ls Rs
Sampling rate: 48.0 kHz
Frame rate: 31.250 FPS (1536 SPF)
Bit depth: 32 bits
Compression mode: Lossy
Stream size: 160 MiB (28%)
Writing library: Lavc59.18.100 ac3
Language: English
Service kind: Complete Main
Default: Yes
Forced: No

Text #1
ID: 3
Format: UTF-8
Codec ID: S_TEXT/UTF8
Codec ID/Info: UTF-8 Plain Text
Duration: 44 min 20 s
Language: English
Default: No
Forced: Yes

Text #2
ID: 4
Format: UTF-8
Codec ID: S_TEXT/UTF8
Codec ID/Info: UTF-8 Plain Text
Duration: 48 min 24 s
Language: English
Default: No
Forced: No

ssl  EZTV RSS EZTV Status | EZTV API | DMCA: [email protected]