eztv.tf | eztvstatus.org
Search title:  
TV Packs only
 

Lessons in Chemistry S01E07 Book of Calvin 1080p ATVP WEB-DL DDP5 1 H 264-NTb EZTV

Episode Breakdown
Lessons in Chemistry
Lessons in Chemistry TV Show S01E07

Season: 1
Episode: 7
Air Date: 17 November, 2023
Download Links
     Torrent Download     Magnet Download
     Anonymous Download
Added 3 months ago by eztv (verified).
Tracker Statistics
Seeds: 6
Peers: 5
Stats generated @ 15:36 on 21st Feb 2024
Torrent Info
Torrent File: Lessons.in.Chemistry.S01E07.Book.of.Calvin.1080p.ATVP.WEB-DL.DDP5.1.H.264-NTb[eztv.re].mkv
Torrent Hash: 1150DCA408A79A13B99AB64B1B96D3F7E956DCF5
Filesize: 3.44 GB
Released: 17th Nov 2023

File Format: MKV (Matroska)
Resolution: 1920x1080 px
Aspect Ratio: 16:9
Alternate Releases S L
Lessons in Chemistry S01E07 1080p WEB H264-GloriousMongoose 31 3
Lessons in Chemistry S01E07 Book of Calvin 720p ATVP WEB-DL DDP5 1 H 264-NTb 12 3
Lessons in Chemistry S01E07 720p WEB h264-ETHEL 4 3
Lessons in Chemistry S01E07 MULTI 1080p WEB H264-ANESSE 8 1
Lessons in Chemistry S01E07 720p HEVC x265-MeGusta 9 2
Lessons in Chemistry S01E07 480p x264-mSD 6 5
Lessons in Chemistry S01E07 XviD-AFG 6 4

Lessons in Chemistry S01E07 - Book of Calvin

Summary:

The chapters of Calvin's life shed light on the mysteries of his past.



Lessons in Chemistry S01E07 Book of Calvin 1080p ATVP WEB-DL DDP5 1 H 264-NTb EZTV
Lessons in Chemistry S1E7 Screenshot


General
Unique ID: 86493034711130198954844658693265409553 (0x4111F3DA8542F68B3B81A9B5CCEFC611)
Complete name: Lessons.in.Chemistry.S01E07.Book.of.Calvin.1080p.ATVP.WEB-DL.DDP5.1.H.264-NTb.mkv
Format: Matroska
Format version: Version 4
File size: 3.44 GiB
Duration: 45 min 28 s
Overall bit rate: 10.8 Mb/s
Frame rate: 23.976 FPS
Writing application: mkvmerge v78.0 ('Running') 64-bit
Writing library: libebml v1.4.4 + libmatroska v1.7.1

Video
ID: 1
Format: AVC
Format/Info: Advanced Video Codec
Format profile: High@L4
Format settings: CABAC / 4 Ref Frames
Format settings, CABAC: Yes
Format settings, Reference frames: 4 frames
Codec ID: V_MPEG4/ISO/AVC
Duration: 45 min 28 s
Bit rate: 10.0 Mb/s
Width: 1 920 pixels
Height: 872 pixels
Display aspect ratio: 2.2:1
Frame rate mode: Constant
Frame rate: 23.976 (24000/1001) FPS
Color space: YUV
Chroma subsampling: 4:2:0
Bit depth: 8 bits
Scan type: Progressive
Bits/(Pixel*Frame): 0.250
Stream size: 3.19 GiB (93%)
Default: Yes
Forced: No
Color range: Limited
Color primaries: BT.709
Transfer characteristics: BT.709
Matrix coefficients: BT.709

Audio
ID: 2
Format: E-AC-3 JOC
Format/Info: Enhanced AC-3 with Joint Object Coding
Commercial name: Dolby Digital Plus with Dolby Atmos
Codec ID: A_EAC3
Duration: 45 min 28 s
Bit rate mode: Constant
Bit rate: 768 kb/s
Channel(s): 6 channels
Channel layout: L R C LFE Ls Rs
Sampling rate: 48.0 kHz
Frame rate: 31.250 FPS (1536 SPF)
Compression mode: Lossy
Stream size: 250 MiB (7%)
Language: English
Service kind: Complete Main
Default: Yes
Forced: No
Complexity index: 16
Number of dynamic objects: 15
Bed channel count: 1 channel
Bed channel configuration: LFE

Text #1
ID: 3
Format: UTF-8
Codec ID: S_TEXT/UTF8
Codec ID/Info: UTF-8 Plain Text
Duration: 43 min 36 s
Bit rate: 67 b/s
Frame rate: 0.208 FPS
Count of elements: 545
Stream size: 21.5 KiB (0%)
Language: English
Default: No
Forced: No

Text #2
ID: 4
Format: UTF-8
Codec ID: S_TEXT/UTF8
Codec ID/Info: UTF-8 Plain Text
Duration: 43 min 36 s
Bit rate: 76 b/s
Frame rate: 0.230 FPS
Count of elements: 601
Stream size: 24.4 KiB (0%)
Title: SDH
Language: English
Default: No
Forced: No

Text #3
ID: 5
Format: UTF-8
Codec ID: S_TEXT/UTF8
Codec ID/Info: UTF-8 Plain Text
Duration: 45 min 1 s
Bit rate: 90 b/s
Frame rate: 0.208 FPS
Count of elements: 562
Stream size: 29.8 KiB (0%)
Language: Arabic
Default: No
Forced: No

Text #4
ID: 6
Format: UTF-8
Codec ID: S_TEXT/UTF8
Codec ID/Info: UTF-8 Plain Text
Duration: 45 min 1 s
Bit rate: 93 b/s
Frame rate: 0.175 FPS
Count of elements: 472
Stream size: 30.8 KiB (0%)
Language: Bulgarian
Default: No
Forced: No

Text #5
ID: 7
Format: UTF-8
Codec ID: S_TEXT/UTF8
Codec ID/Info: UTF-8 Plain Text
Duration: 45 min 6 s
Bit rate: 54 b/s
Frame rate: 0.211 FPS
Count of elements: 571
Stream size: 18.0 KiB (0%)
Title: Chinese (Simplified)
Language: Chinese (Simplified)
Default: No
Forced: No

Text #6
ID: 8
Format: UTF-8
Codec ID: S_TEXT/UTF8
Codec ID/Info: UTF-8 Plain Text
Duration: 45 min 6 s
Bit rate: 54 b/s
Frame rate: 0.211 FPS
Count of elements: 572
Stream size: 18.1 KiB (0%)
Title: Chinese (Traditional)
Language: Chinese (Traditional)
Default: No
Forced: No

Text #7
ID: 9
Format: UTF-8
Codec ID: S_TEXT/UTF8
Codec ID/Info: UTF-8 Plain Text
Duration: 45 min 1 s
Bit rate: 62 b/s
Frame rate: 0.194 FPS
Count of elements: 525
Stream size: 20.6 KiB (0%)
Language: Czech
Default: No
Forced: No

Text #8
ID: 10
Format: UTF-8
Codec ID: S_TEXT/UTF8
Codec ID/Info: UTF-8 Plain Text
Duration: 45 min 1 s
Bit rate: 66 b/s
Frame rate: 0.184 FPS
Count of elements: 498
Stream size: 21.9 KiB (0%)
Language: Danish
Default: No
Forced: No

Text #9
ID: 11
Format: UTF-8
Codec ID: S_TEXT/UTF8
Codec ID/Info: UTF-8 Plain Text
Duration: 45 min 13 s
Bit rate: 65 b/s
Frame rate: 0.209 FPS
Count of elements: 568
Stream size: 21.8 KiB (0%)
Language: German
Default: No
Forced: No

Text #10
ID: 12
Format: UTF-8
Codec ID: S_TEXT/UTF8
Codec ID/Info: UTF-8 Plain Text
Duration: 45 min 1 s
Bit rate: 108 b/s
Frame rate: 0.203 FPS
Count of elements: 548
Stream size: 35.8 KiB (0%)
Language: Greek
Default: No
Forced: No

Text #11
ID: 13
Format: UTF-8
Codec ID: S_TEXT/UTF8
Codec ID/Info: UTF-8 Plain Text
Duration: 45 min 1 s
Bit rate: 66 b/s
Frame rate: 0.210 FPS
Count of elements: 567
Stream size: 21.9 KiB (0%)
Title: Spanish (Latin America)
Language: Spanish (Latin America)
Default: No
Forced: No

Text #12
ID: 14
Format: UTF-8
Codec ID: S_TEXT/UTF8
Codec ID/Info: UTF-8 Plain Text
Duration: 45 min 13 s
Bit rate: 65 b/s
Frame rate: 0.208 FPS
Count of elements: 565
Stream size: 21.7 KiB (0%)
Title: Spanish (Spain)
Language: Spanish (ES)
Default: No
Forced: No

Text #13
ID: 15
Format: UTF-8
Codec ID: S_TEXT/UTF8
Codec ID/Info: UTF-8 Plain Text
Duration: 45 min 1 s
Bit rate: 63 b/s
Frame rate: 0.201 FPS
Count of elements: 544
Stream size: 21.0 KiB (0%)
Language: Estonian
Default: No
Forced: No

Text #14
ID: 16
Format: UTF-8
Codec ID: S_TEXT/UTF8
Codec ID/Info: UTF-8 Plain Text
Duration: 45 min 1 s
Bit rate: 58 b/s
Frame rate: 0.193 FPS
Count of elements: 521
Stream size: 19.4 KiB (0%)
Language: Finnish
Default: No
Forced: No

Text #15
ID: 17
Format: UTF-8
Codec ID: S_TEXT/UTF8
Codec ID/Info: UTF-8 Plain Text
Duration: 44 min 58 s
Bit rate: 60 b/s
Frame rate: 0.213 FPS
Count of elements: 575
Stream size: 19.9 KiB (0%)
Title: French (Canada)
Language: French (CA)
Default: No
Forced: No

Text #16
ID: 18
Format: UTF-8
Codec ID: S_TEXT/UTF8
Codec ID/Info: UTF-8 Plain Text
Duration: 44 min 58 s
Bit rate: 60 b/s
Frame rate: 0.213 FPS
Count of elements: 574
Stream size: 19.9 KiB (0%)
Title: French (France)
Language: French (FR)
Default: No
Forced: No

Text #17
ID: 19
Format: UTF-8
Codec ID: S_TEXT/UTF8
Codec ID/Info: UTF-8 Plain Text
Duration: 45 min 1 s
Bit rate: 84 b/s
Frame rate: 0.209 FPS
Count of elements: 565
Stream size: 27.8 KiB (0%)
Language: Hebrew
Default: No
Forced: No

Text #18
ID: 20
Format: UTF-8
Codec ID: S_TEXT/UTF8
Codec ID/Info: UTF-8 Plain Text
Duration: 45 min 1 s
Bit rate: 176 b/s
Frame rate: 0.210 FPS
Count of elements: 568
Stream size: 58.2 KiB (0%)
Language: Hindi
Default: No
Forced: No

Text #19
ID: 21
Format: UTF-8
Codec ID: S_TEXT/UTF8
Codec ID/Info: UTF-8 Plain Text
Duration: 45 min 1 s
Bit rate: 66 b/s
Frame rate: 0.206 FPS
Count of elements: 557
Stream size: 22.0 KiB (0%)
Language: Hungarian
Default: No
Forced: No

Text #20
ID: 22
Format: UTF-8
Codec ID: S_TEXT/UTF8
Codec ID/Info: UTF-8 Plain Text
Duration: 45 min 1 s
Bit rate: 64 b/s
Frame rate: 0.208 FPS
Count of elements: 561
Stream size: 21.3 KiB (0%)
Language: Indonesian
Default: No
Forced: No

Text #21
ID: 23
Format: UTF-8
Codec ID: S_TEXT/UTF8
Codec ID/Info: UTF-8 Plain Text
Duration: 45 min 13 s
Bit rate: 68 b/s
Frame rate: 0.209 FPS
Count of elements: 567
Stream size: 22.6 KiB (0%)
Language: Italian
Default: No
Forced: No

Text #22
ID: 24
Format: UTF-8
Codec ID: S_TEXT/UTF8
Codec ID/Info: UTF-8 Plain Text
Duration: 45 min 6 s
Bit rate: 51 b/s
Frame rate: 0.216 FPS
Count of elements: 585
Stream size: 16.9 KiB (0%)
Language: Japanese
Default: No
Forced: No

Text #23
ID: 25
Format: UTF-8
Codec ID: S_TEXT/UTF8
Codec ID/Info: UTF-8 Plain Text
Duration: 45 min 6 s
Bit rate: 69 b/s
Frame rate: 0.211 FPS
Count of elements: 572
Stream size: 22.9 KiB (0%)
Language: Korean
Default: No
Forced: No

Text #24
ID: 26
Format: UTF-8
Codec ID: S_TEXT/UTF8
Codec ID/Info: UTF-8 Plain Text
Duration: 45 min 1 s
Bit rate: 64 b/s
Frame rate: 0.209 FPS
Count of elements: 565
Stream size: 21.1 KiB (0%)
Language: Lithuanian
Default: No
Forced: No

Text #25
ID: 27
Format: UTF-8
Codec ID: S_TEXT/UTF8
Codec ID/Info: UTF-8 Plain Text
Duration: 45 min 1 s
Bit rate: 68 b/s
Frame rate: 0.203 FPS
Count of elements: 548
Stream size: 22.5 KiB (0%)
Language: Latvian
Default: No
Forced: No

Text #26
ID: 28
Format: UTF-8
Codec ID: S_TEXT/UTF8
Codec ID/Info: UTF-8 Plain Text
Duration: 45 min 1 s
Bit rate: 65 b/s
Frame rate: 0.206 FPS
Count of elements: 556
Stream size: 21.6 KiB (0%)
Language: Malay
Default: No
Forced: No

Text #27
ID: 29
Format: UTF-8
Codec ID: S_TEXT/UTF8
Codec ID/Info: UTF-8 Plain Text
Duration: 45 min 1 s
Bit rate: 54 b/s
Frame rate: 0.168 FPS
Count of elements: 454
Stream size: 17.8 KiB (0%)
Language: Dutch
Default: No
Forced: No

Text #28
ID: 30
Format: UTF-8
Codec ID: S_TEXT/UTF8
Codec ID/Info: UTF-8 Plain Text
Duration: 45 min 1 s
Bit rate: 61 b/s
Frame rate: 0.169 FPS
Count of elements: 457
Stream size: 20.4 KiB (0%)
Language: Norwegian
Default: No
Forced: No

Text #29
ID: 31
Format: UTF-8
Codec ID: S_TEXT/UTF8
Codec ID/Info: UTF-8 Plain Text
Duration: 45 min 1 s
Bit rate: 61 b/s
Frame rate: 0.190 FPS
Count of elements: 514
Stream size: 20.2 KiB (0%)
Language: Polish
Default: No
Forced: No

Text #30
ID: 32
Format: UTF-8
Codec ID: S_TEXT/UTF8
Codec ID/Info: UTF-8 Plain Text
Duration: 45 min 1 s
Bit rate: 65 b/s
Frame rate: 0.205 FPS
Count of elements: 553
Stream size: 21.7 KiB (0%)
Title: Portuguese
Language: Portuguese
Default: No
Forced: No

Text #31
ID: 33
Format: UTF-8
Codec ID: S_TEXT/UTF8
Codec ID/Info: UTF-8 Plain Text
Duration: 45 min 1 s
Bit rate: 63 b/s
Frame rate: 0.185 FPS
Count of elements: 500
Stream size: 20.8 KiB (0%)
Title: Portuguese (Brazil)
Language: Portuguese (BR)
Default: No
Forced: No

Text #32
ID: 34
Format: UTF-8
Codec ID: S_TEXT/UTF8
Codec ID/Info: UTF-8 Plain Text
Duration: 45 min 1 s
Bit rate: 105 b/s
Frame rate: 0.204 FPS
Count of elements: 551
Stream size: 34.9 KiB (0%)
Language: Russian
Default: No
Forced: No

Text #33
ID: 35
Format: UTF-8
Codec ID: S_TEXT/UTF8
Codec ID/Info: UTF-8 Plain Text
Duration: 45 min 1 s
Bit rate: 62 b/s
Frame rate: 0.204 FPS
Count of elements: 552
Stream size: 20.6 KiB (0%)
Language: Slovak
Default: No
Forced: No

Text #34
ID: 36
Format: UTF-8
Codec ID: S_TEXT/UTF8
Codec ID/Info: UTF-8 Plain Text
Duration: 44 min 42 s
Bit rate: 55 b/s
Frame rate: 0.197 FPS
Count of elements: 529
Stream size: 18.1 KiB (0%)
Language: Slovenian
Default: No
Forced: No

Text #35
ID: 37
Format: UTF-8
Codec ID: S_TEXT/UTF8
Codec ID/Info: UTF-8 Plain Text
Duration: 45 min 1 s
Bit rate: 66 b/s
Frame rate: 0.195 FPS
Count of elements: 527
Stream size: 21.9 KiB (0%)
Language: Swedish
Default: No
Forced: No

Text #36
ID: 38
Format: UTF-8
Codec ID: S_TEXT/UTF8
Codec ID/Info: UTF-8 Plain Text
Duration: 45 min 1 s
Bit rate: 213 b/s
Frame rate: 0.210 FPS
Count of elements: 566
Stream size: 70.3 KiB (0%)
Language: Tamil
Default: No
Forced: No

Text #37
ID: 39
Format: UTF-8
Codec ID: S_TEXT/UTF8
Codec ID/Info: UTF-8 Plain Text
Duration: 45 min 1 s
Bit rate: 194 b/s
Frame rate: 0.210 FPS
Count of elements: 566
Stream size: 64.3 KiB (0%)
Language: Telugu
Default: No
Forced: No

Text #38
ID: 40
Format: UTF-8
Codec ID: S_TEXT/UTF8
Codec ID/Info: UTF-8 Plain Text
Duration: 45 min 6 s
Bit rate: 160 b/s
Frame rate: 0.211 FPS
Count of elements: 571
Stream size: 52.9 KiB (0%)
Language: Thai
Default: No
Forced: No

Text #39
ID: 41
Format: UTF-8
Codec ID: S_TEXT/UTF8
Codec ID/Info: UTF-8 Plain Text
Duration: 45 min 1 s
Bit rate: 66 b/s
Frame rate: 0.206 FPS
Count of elements: 557
Stream size: 21.8 KiB (0%)
Language: Turkish
Default: No
Forced: No

Text #40
ID: 42
Format: UTF-8
Codec ID: S_TEXT/UTF8
Codec ID/Info: UTF-8 Plain Text
Duration: 45 min 1 s
Bit rate: 105 b/s
Frame rate: 0.209 FPS
Count of elements: 565
Stream size: 34.8 KiB (0%)
Language: Ukrainian
Default: No
Forced: No

Text #41
ID: 43
Format: UTF-8
Codec ID: S_TEXT/UTF8
Codec ID/Info: UTF-8 Plain Text
Duration: 45 min 1 s
Bit rate: 89 b/s
Frame rate: 0.210 FPS
Count of elements: 567
Stream size: 29.5 KiB (0%)
Language: Vietnamese
Default: No
Forced: No

Text #42
ID: 44
Format: UTF-8
Codec ID: S_TEXT/UTF8
Codec ID/Info: UTF-8 Plain Text
Duration: 45 min 6 s
Bit rate: 54 b/s
Frame rate: 0.211 FPS
Count of elements: 572
Stream size: 17.9 KiB (0%)
Title: Chinese (Traditional)
Language: Chinese (Traditional)
Default: No
Forced: No

Menu
00:00:00.000: en:Chapter 1
00:02:16.500: en:Intro
00:03:11.083: en:Chapter 2

ssl  EZTV RSS EZTV Status | EZTV API | DMCA: [email protected]