eztv.tf | eztvstatus.org
Search title:  
TV Packs only
 

Billions S07E07 DMV 1080p AMZN WEB-DL DDP5 1 H 264-NTb EZTV

Episode Breakdown
Billions
Billions TV Show S07E07

Season: 7
Episode: 7
Air Date: 22 September, 2023
Download Links
     Torrent Download     Magnet Download
     Anonymous Download
Added 9 months ago by eztv (verified).
Tracker Statistics
Seeds: 4
Peers: 3
Stats generated @ 21:09 on 22nd Jun 2024
Torrent Info
Torrent File: Billions.S07E07.DMV.1080p.AMZN.WEB-DL.DDP5.1.H.264-NTb[eztv.re].mkv
Torrent Hash: FE6442CF237BDDE20C9553B94DE8EBC8E69DC72F
Filesize: 2.35 GB
Released: 22nd Sep 2023

File Format: MKV (Matroska)
Resolution: 1920x1080 px
Aspect Ratio: 16:9
Alternate Releases S L
Billions S07E07 720p HEVC x265-MeGusta 6 0
Billions S07E07 1080p HEVC x265-MeGusta 13 2
Billions S07E07 XviD-AFG 6 1
Billions S07E07 German DL 480p x264-mSD 9 0
Billions S07E07 German DL 720p HEVC x265-MeGusta 0 0
Billions S07E07 German DL XviD-AFG 0 1
Billions S07E07 720p WEB h264-ETHEL 13 0

Billions S07E07 - DMV

Summary:

Prince's latest play promises to enhance his political platform but puts Philip in a tough position. Chuck and Wendy face a family crisis as a consequence of Senior's poor judgment. Wags and Scooter team up to boost employee morale at Prince Cap.



Billions S07E07 DMV 1080p AMZN WEB-DL DDP5 1 H 264-NTb EZTV
Billions S7E7 Screenshot


General
Unique ID: 150939856822748009269486561574532808926 (0x718DF58164DAFDECBA35E61FA71600DE)
Complete name: Billions.S07E07.DMV.1080p.AMZN.WEB-DL.DDP5.1.H.264-NTb.mkv
Format: Matroska
Format version: Version 4
File size: 2.35 GiB
Duration: 56 min 0 s
Overall bit rate: 6 000 kb/s
Frame rate: 23.976 FPS
Writing application: mkvmerge v78.0 ('Running') 64-bit
Writing library: libebml v1.4.4 + libmatroska v1.7.1

Video
ID: 1
Format: AVC
Format/Info: Advanced Video Codec
Format profile: High@L4
Format settings: CABAC / 4 Ref Frames
Format settings, CABAC: Yes
Format settings, Reference frames: 4 frames
Codec ID: V_MPEG4/ISO/AVC
Duration: 56 min 0 s
Bit rate mode: Constant
Bit rate: 5 357 kb/s
Nominal bit rate: 10 000 kb/s
Width: 1 920 pixels
Height: 1 080 pixels
Display aspect ratio: 16:9
Frame rate mode: Constant
Frame rate: 23.976 (24000/1001) FPS
Color space: YUV
Chroma subsampling: 4:2:0
Bit depth: 8 bits
Scan type: Progressive
Bits/(Pixel*Frame): 0.108
Stream size: 2.10 GiB (89%)
Default: Yes
Forced: No
Color range: Limited
Color primaries: BT.709
Transfer characteristics: BT.709
Matrix coefficients: BT.709

Audio
ID: 2
Format: E-AC-3
Format/Info: Enhanced AC-3
Commercial name: Dolby Digital Plus
Codec ID: A_EAC3
Duration: 56 min 0 s
Bit rate mode: Constant
Bit rate: 640 kb/s
Channel(s): 6 channels
Channel layout: L R C LFE Ls Rs
Sampling rate: 48.0 kHz
Frame rate: 31.250 FPS (1536 SPF)
Compression mode: Lossy
Delay relative to video: 14 ms
Stream size: 256 MiB (11%)
Language: English (US)
Service kind: Complete Main
Default: Yes
Forced: No

Text #1
ID: 3
Format: UTF-8
Codec ID: S_TEXT/UTF8
Codec ID/Info: UTF-8 Plain Text
Duration: 55 min 52 s
Bit rate: 89 b/s
Frame rate: 0.336 FPS
Count of elements: 1125
Stream size: 36.7 KiB (0%)
Language: English (US)
Default: No
Forced: No

Text #2
ID: 4
Format: UTF-8
Codec ID: S_TEXT/UTF8
Codec ID/Info: UTF-8 Plain Text
Duration: 55 min 52 s
Bit rate: 92 b/s
Frame rate: 0.351 FPS
Count of elements: 1176
Stream size: 37.7 KiB (0%)
Title: SDH
Language: English (US)
Default: No
Forced: No

ssl  EZTV RSS EZTV Status | EZTV API | DMCA: [email protected]