eztv.tf | eztvstatus.org
Search title:  
TV Packs only
 

The Chelsea Detective S02E04 A Crime of Passion 1080p WEBRip EAC3 H265-d3g EZTV

Episode Breakdown
The Chelsea Detective
The Chelsea Detective TV Show S02E04

Season: 2
Episode: 4
Air Date: 18 September, 2023
Download Links
     Torrent Download     Magnet Download
     Anonymous Download
Added 10 months ago by eztv (verified).
Tracker Statistics
Seeds: 1
Peers: 1
Stats generated @ 01:14 on 24th Jul 2024
Torrent Info
Torrent File: The.Chelsea.Detective.S02E04.A.Crime.of.Passion.1080p.WEBRip.EAC3.H265-d3g[eztv.re].mkv
Torrent Hash: 88D721C9A3CADCEB38FB2C58E2988B33B4CC3C6E
Filesize: 2.67 GB
Released: 20th Sep 2023

File Format: MKV (Matroska)
Resolution: 1920x1080 px
Aspect Ratio: 16:9
Alternate Releases S L
The Chelsea Detective S02E04 A Crime of Passion 720p AMZN WEB-DL DDP5 1 H 264-NTb 2 4
The Chelsea Detective S02E04 A Crime of Passion 1080p AMZN WEB-DL DDP5 1 H 264-NTb 2 1

The Chelsea Detective S02E04 - A Crime of Passion

Summary:

Jack Felton, the charming owner of a fruit and vegetable delivery company, is found stabbed at home in what looks like a frenzied attack. The detectives must unravel romantic jealousies, family conflicts, and business rivalries to nab the killer.



The Chelsea Detective S02E04 A Crime of Passion 1080p WEBRip EAC3 H265-d3g EZTV
The Chelsea Detective S2E4 Screenshot


General
Unique ID: 246889723912329951027372291287857299856 (0xB9BD3B318620F923BDFC960002A10190)
Complete name: The.Chelsea.Detective.S02E04.A.Crime.of.Passion.1080p.WEBRip.EAC3.H265-d3g.mkv
Format: Matroska
Format version: Version 2
File size: 2.67 GiB
Duration: 1 h 28 min
Overall bit rate: 4 340 kb/s
Frame rate: 25.000 FPS
Movie name: The.Chelsea.Detective.S02E04.A.Crime.of.Passion.1080p.WEBRip.EAC3.H265-d3g
Encoded date: 2023-09-19 20:31:08 UTC
Writing application: DVDFab 12.1.1.5
Writing library: libebml v1.4.2 + libmatroska v1.6.3

Video
ID: 1
Format: HEVC
Format/Info: High Efficiency Video Coding
Format profile: Main@L4@Main
Codec ID: V_MPEGH/ISO/HEVC
Duration: 1 h 28 min
Bit rate: 3 595 kb/s
Width: 1 920 pixels
Height: 1 080 pixels
Display aspect ratio: 16:9
Frame rate mode: Constant
Frame rate: 25.000 FPS
Color space: YUV
Chroma subsampling: 4:2:0
Bit depth: 8 bits
Bits/(Pixel*Frame): 0.069
Stream size: 2.21 GiB (83%)
Default: Yes
Forced: No
Color range: Limited
Color primaries: BT.709
Transfer characteristics: BT.709
Matrix coefficients: BT.709

Audio
ID: 2
Format: E-AC-3
Format/Info: Enhanced AC-3
Commercial name: Dolby Digital Plus
Codec ID: A_EAC3
Duration: 1 h 28 min
Bit rate mode: Constant
Bit rate: 640 kb/s
Channel(s): 6 channels
Channel layout: L R C LFE Ls Rs
Sampling rate: 48.0 kHz
Frame rate: 31.250 FPS (1536 SPF)
Compression mode: Lossy
Stream size: 403 MiB (15%)
Language: English
Service kind: Complete Main
Default: Yes
Forced: No

Text #1
ID: 3
Format: PGS
Codec ID: S_HDMV/PGS
Codec ID/Info: Picture based subtitle format used on BDs/HD-DVDs
Duration: 1 h 26 min
Bit rate: 50.8 kb/s
Frame rate: 0.547 FPS
Count of elements: 2848
Stream size: 31.6 MiB (1%)
Language: English
Default: Yes
Forced: No

Text #2
ID: 4
Format: PGS
Codec ID: S_HDMV/PGS
Codec ID/Info: Picture based subtitle format used on BDs/HD-DVDs
Duration: 1 h 26 min
Bit rate: 52.8 kb/s
Frame rate: 0.576 FPS
Count of elements: 3002
Stream size: 32.8 MiB (1%)
Language: English
Default: No
Forced: No

ssl  EZTV RSS EZTV Status | EZTV API | DMCA: [email protected]