eztv.tf | eztvstatus.org
Search title:  
TV Packs only
 

The Killing Kind S01E06 1080p WEBRip DDP5 1 H265-d3g EZTV

Episode Breakdown
The Killing Kind
The Killing Kind TV Show S01E06

Season: 1
Episode: 6
Air Date: 7 September, 2023
Download Links
     Torrent Download     Magnet Download
     Anonymous Download
Added 8 months ago by eztv (verified).
Tracker Statistics
Seeds: 0
Peers: 0
Stats generated @ 15:39 on 15th Jun 2024
Torrent Info
Torrent File: The.Killing.Kind.S01E06.1080p.WEBRip.DDP5.1.H265-d3g[eztv.re].mkv
Torrent Hash: F149FFD5BEF9D8D965591F2D421917992595394F
Filesize: 1.77 GB
Released: 18th Sep 2023

File Format: MKV (Matroska)
Resolution: 1920x1080 px
Aspect Ratio: 16:9
Alternate Releases S L
The Killing Kind S01E06 WEBRip x264-XEN0N 4 0
The Killing Kind S01E06 720p WEB h264-EDITH 0 0
The Killing Kind S01E06 1080p WEB h264-EDITH 0 0
The Killing Kind S01E06 480p x264-mSD 3 0
The Killing Kind S01E06 XviD-AFG 1 0
The Killing Kind S01E06 FINAL MULTI 1080p WEB H264-HiggsBoson 0 0

The Killing Kind S01E06 - Episode 6

Summary:

Ingrid is forced to re-examine the original Webster legal case she worked on. In an explosive final twist, Ingrid must fight to right the wrongs to ensure that justice is done. But can Ingrid ever escape her past?



The Killing Kind S01E06 1080p WEBRip DDP5 1 H265-d3g EZTV
The Killing Kind S1E6 Screenshot


General
Unique ID: 175079872082958784508286202673431691696 (0x83B72826099793A39ADAB4FD6E19C1B0)
Complete name: The.Killing.Kind.S01E06.1080p.WEBRip.DDP5.1.H265-d3g.mkv
Format: Matroska
Format version: Version 2
File size: 1.77 GiB
Duration: 45 min 3 s
Overall bit rate: 5 620 kb/s
Frame rate: 23.976 FPS
Movie name: The.Killing.Kind.S01E06.1080p.WEBRip.DDP5.1.H265-d3g
Encoded date: 2023-09-18 15:13:24 UTC
Writing application: DVDFab 12.1.1.5
Writing library: libebml v1.4.2 + libmatroska v1.6.3

Video
ID: 1
Format: HEVC
Format/Info: High Efficiency Video Coding
Format profile: Main@L4@Main
Codec ID: V_MPEGH/ISO/HEVC
Duration: 45 min 3 s
Bit rate: 4 893 kb/s
Width: 1 920 pixels
Height: 1 080 pixels
Display aspect ratio: 16:9
Frame rate mode: Constant
Frame rate: 23.976 (24000/1001) FPS
Color space: YUV
Chroma subsampling: 4:2:0
Bit depth: 8 bits
Bits/(Pixel*Frame): 0.098
Stream size: 1.54 GiB (87%)
Default: Yes
Forced: No
Color range: Limited
Color primaries: BT.709
Transfer characteristics: BT.709
Matrix coefficients: BT.709

Audio
ID: 2
Format: E-AC-3
Format/Info: Enhanced AC-3
Commercial name: Dolby Digital Plus
Codec ID: A_EAC3
Duration: 45 min 3 s
Bit rate mode: Constant
Bit rate: 640 kb/s
Channel(s): 6 channels
Channel layout: L R C LFE Ls Rs
Sampling rate: 48.0 kHz
Frame rate: 31.250 FPS (1536 SPF)
Compression mode: Lossy
Stream size: 206 MiB (11%)
Language: English
Service kind: Complete Main
Default: Yes
Forced: No

Text #1
ID: 3
Format: PGS
Codec ID: S_HDMV/PGS
Codec ID/Info: Picture based subtitle format used on BDs/HD-DVDs
Duration: 44 min 23 s
Bit rate: 41.6 kb/s
Frame rate: 0.502 FPS
Count of elements: 1338
Stream size: 13.2 MiB (1%)
Language: English
Default: Yes
Forced: No

Text #2
ID: 4
Format: PGS
Codec ID: S_HDMV/PGS
Codec ID/Info: Picture based subtitle format used on BDs/HD-DVDs
Duration: 44 min 25 s
Bit rate: 44.3 kb/s
Frame rate: 0.532 FPS
Count of elements: 1418
Stream size: 14.1 MiB (1%)
Language: English
Default: No
Forced: No

ssl  EZTV RSS EZTV Status | EZTV API | DMCA: [email protected]