eztv.tf | eztvstatus.org
Search title:  
TV Packs only
 

The Killing Kind S01E05 1080p WEBRip DDP5 1 H265-d3g EZTV

Episode Breakdown
The Killing Kind
The Killing Kind TV Show S01E05

Season: 1
Episode: 5
Air Date: 7 September, 2023
Download Links
     Torrent Download     Magnet Download
     Anonymous Download
Added 9 months ago by eztv (verified).
Tracker Statistics
Seeds: 0
Peers: 0
Stats generated @ 06:54 on 18th Jul 2024
Torrent Info
Torrent File: The.Killing.Kind.S01E05.1080p.WEBRip.DDP5.1.H265-d3g[eztv.re].mkv
Torrent Hash: 74323648636AE1271642F5F3AE93C277563EC824
Filesize: 1.83 GB
Released: 18th Sep 2023

File Format: MKV (Matroska)
Resolution: 1920x1080 px
Aspect Ratio: 16:9
Alternate Releases S L
The Killing Kind S01E05 WEBRip x264-XEN0N 3 0
The Killing Kind S01E05 720p WEB h264-EDITH 0 0
The Killing Kind S01E05 1080p WEB h264-EDITH 2 0
The Killing Kind S01E05 480p x264-mSD 1 1
The Killing Kind S01E05 XviD-AFG 1 0
The Killing Kind S01E05 MULTI 1080p WEB H264-HiggsBoson 0 0

The Killing Kind S01E05 - Episode 5

Summary:

Ingrid challenges Webster for concealing information and visits a lonely place, and when Detective Nash arrives his conduct seems suspicious - but does Ingrid now have the evidence she needs?



The Killing Kind S01E05 1080p WEBRip DDP5 1 H265-d3g EZTV
The Killing Kind S1E5 Screenshot


General
Unique ID: 198884778436793912846662538838021225495 (0x959FD0A5A32460F49E8248CDB99FBC17)
Complete name: The.Killing.Kind.S01E05.1080p.WEBRip.DDP5.1.H265-d3g.mkv
Format: Matroska
Format version: Version 2
File size: 1.83 GiB
Duration: 46 min 30 s
Overall bit rate: 5 632 kb/s
Frame rate: 23.976 FPS
Movie name: The.Killing.Kind.S01E05.1080p.WEBRip.DDP5.1.H265-d3g
Encoded date: 2023-09-18 15:11:27 UTC
Writing application: DVDFab 12.1.1.5
Writing library: libebml v1.4.2 + libmatroska v1.6.3

Video
ID: 1
Format: HEVC
Format/Info: High Efficiency Video Coding
Format profile: Main@L4@Main
Codec ID: V_MPEGH/ISO/HEVC
Duration: 46 min 30 s
Bit rate: 4 920 kb/s
Width: 1 920 pixels
Height: 1 080 pixels
Display aspect ratio: 16:9
Frame rate mode: Constant
Frame rate: 23.976 (24000/1001) FPS
Color space: YUV
Chroma subsampling: 4:2:0
Bit depth: 8 bits
Bits/(Pixel*Frame): 0.099
Stream size: 1.60 GiB (87%)
Default: Yes
Forced: No
Color range: Limited
Color primaries: BT.709
Transfer characteristics: BT.709
Matrix coefficients: BT.709

Audio
ID: 2
Format: E-AC-3
Format/Info: Enhanced AC-3
Commercial name: Dolby Digital Plus
Codec ID: A_EAC3
Duration: 46 min 30 s
Bit rate mode: Constant
Bit rate: 640 kb/s
Channel(s): 6 channels
Channel layout: L R C LFE Ls Rs
Sampling rate: 48.0 kHz
Frame rate: 31.250 FPS (1536 SPF)
Compression mode: Lossy
Stream size: 213 MiB (11%)
Language: English
Service kind: Complete Main
Default: Yes
Forced: No

Text #1
ID: 3
Format: PGS
Codec ID: S_HDMV/PGS
Codec ID/Info: Picture based subtitle format used on BDs/HD-DVDs
Duration: 45 min 48 s
Bit rate: 34.5 kb/s
Frame rate: 0.426 FPS
Count of elements: 1170
Stream size: 11.3 MiB (1%)
Language: English
Default: Yes
Forced: No

Text #2
ID: 4
Format: PGS
Codec ID: S_HDMV/PGS
Codec ID/Info: Picture based subtitle format used on BDs/HD-DVDs
Duration: 45 min 48 s
Bit rate: 36.2 kb/s
Frame rate: 0.449 FPS
Count of elements: 1234
Stream size: 11.9 MiB (1%)
Language: English
Default: No
Forced: No

ssl  EZTV RSS EZTV Status | EZTV API | DMCA: [email protected]